<?xml version="1.0" encoding="UTF-8"?>
<svg xmlns="http://www.w3.org/2000/svg" xmlns:xlink="http://www.w3.org/1999/xlink" version="1.2">
<font id="BoutrosAsma">
<font-face font-family="BoutrosAsma" units-per-em="1000" ascent="728" descent="-210" font-style="normal" font-weight="400" font-stretch="normal" cap-height="716" x-height="530" underline-position="-94" underline-thickness="63"/>
<missing-glyph horiz-adv-x="184" d="M18 0 L18 716 L166 716 L166 0 L18 0 Z M148 18 L148 698 L36 698 L36 18 L148 18 Z "/>
<glyph glyph-name="space" unicode=" " horiz-adv-x="184" d=""/>
<glyph glyph-name="exclam" unicode="!" horiz-adv-x="199" d="M141 716 L141 207 L98 172 L56 172 L56 716 L141 716 Z M100 93 Q120 93 134.5 78.5 Q149 64 149 44 Q149 23 135 9 Q121 -5 100 -5 Q80 -5 65.5 9 Q51 23 51 44 Q51 64 65.5 78.5 Q80 93 100 93 Z "/>
<glyph glyph-name="quotedbl" unicode="&quot;" horiz-adv-x="340" d="M140 716 L140 517 L105 488 L69 488 L69 716 L140 716 Z M271 716 L271 517 L236 488 L200 488 L200 716 L271 716 Z "/>
<glyph glyph-name="numbersign" unicode="#" horiz-adv-x="609" d="M502 672 L464 466 L589 466 L589 403 L452 403 L423 264 L557 264 L557 201 L412 201 L373 0 L295 0 L334 201 L221 201 L184 0 L108 0 L145 201 L21 201 L21 264 L156 264 L185 403 L54 403 L54 466 L196 466 L234 672 L312 672 L274 466 L388 466 L426 672 L502 672 Z M375 403 L262 403 L233 264 L346 264 L375 403 Z "/>
<glyph glyph-name="dollar" unicode="$" horiz-adv-x="580" d="M321 716 L321 634 Q386 626 446 599 L446 532 Q381 560 321 565 L321 371 Q409 340 445 307 Q487 268 487 205 Q487 141 443 101 Q400 62 321 51 L321 -55 L258 -55 L258 47 Q187 47 127 64 L92 108 L92 140 Q120 129 175 121 Q213 115 241 115 Q251 115 258 116 L258 316 Q172 345 137 380 Q98 418 98 484 Q98 545 142 585 Q184 624 258 633 L258 716 L321 716 Z M258 393 L258 563 Q217 556 197 535 Q179 514 179 483 Q179 449 196 430 Q213 409 258 393 Z M321 292 L321 120 Q368 128 389 155 Q406 175 406 205 Q406 236 387 256 Q368 276 321 292 Z "/>
<glyph glyph-name="percent" unicode="%" horiz-adv-x="741" d="M167 684 Q204 684 230 670 Q256 656 277 625 Q317 565 317 468 Q317 369 277 313 Q238 260 168 260 Q128 260 102 273 Q76 286 55 316 Q18 371 18 466 Q18 565 56 622 Q76 655 102 669.5 Q128 684 167 684 Z M609 673 L212 0 L140 0 L536 673 L609 673 Z M167 631 Q126 631 104 596 Q79 555 79 466 Q79 402 94 365 Q114 313 167 313 Q218 313 240 362 Q257 401 257 466 Q257 557 228 599 Q206 631 167 631 Z M572 415 Q609 415 635 401 Q661 387 682 356 Q722 296 722 199 Q722 100 682 44 Q643 -9 573 -9 Q533 -9 507 4 Q481 17 460 47 Q423 102 423 197 Q423 296 461 353 Q481 386 507 400.5 Q533 415 572 415 Z M572 362 Q531 362 509 327 Q484 287 484 197 Q484 132 499 96 Q519 44 572 44 Q623 44 645 93 Q662 132 662 197 Q662 288 633 330 Q611 362 572 362 Z "/>
<glyph glyph-name="ampersand" unicode="&amp;" horiz-adv-x="655" d="M484 339 L562 339 Q561 246 506 159 L635 0 L528 0 L457 88 Q409 41 382 24 Q327 -11 253 -11 Q155 -11 99 49 Q51 102 51 184 Q51 255 90 302 Q124 343 210 393 Q164 451 147.5 484.5 Q131 518 131 553 Q131 623 186 669 Q234 708 299 708 Q374 708 419 659 Q459 616 459 554 Q459 501 429.5 463.5 Q400 426 323 383 L454 222 Q484 281 484 339 Z M280 434 L293 443 Q340 472 360.5 498.5 Q381 525 381 555 Q381 594 354 618 Q330 639 296 639 Q255 639 231 613 Q211 590 211 554 Q211 527 222 508 Q233 489 280 434 Z M253 342 Q186 299 159.5 266 Q133 233 133 191 Q133 136 176 98 Q212 66 262 66 Q300 66 334.5 84.5 Q369 103 411 146 L253 342 Z "/>
<glyph glyph-name="quotesingle" unicode="'" horiz-adv-x="209" d="M140 716 L140 517 L105 488 L69 488 L69 716 L140 716 Z "/>
<glyph glyph-name="parenleft" unicode="(" horiz-adv-x="313" d="M241 716 L268 695 Q207 610 176 498 Q150 406 150 302 Q150 191 183 87 Q211 0 268 -85 L241 -106 L213 -106 Q143 -25 108 82 Q74 185 74 301 Q74 419 108 524 Q143 633 213 716 L241 716 Z "/>
<glyph glyph-name="parenright" unicode=")" horiz-adv-x="313" d="M73 716 L101 716 Q171 633 206 524 Q240 419 240 301 Q240 185 206 82 Q171 -25 101 -106 L73 -106 L46 -85 Q103 0 131 87 Q164 191 164 302 Q164 405 138 498 Q107 610 46 695 L73 716 Z "/>
<glyph glyph-name="asterisk" unicode="*" horiz-adv-x="382" d="M157 716 L218 716 L214 606 L318 644 L336 586 L230 556 L299 469 L249 433 L188 525 L126 433 L77 469 L145 556 L39 586 L58 644 L162 606 L157 716 Z "/>
<glyph glyph-name="plus" unicode="+" horiz-adv-x="517" d="M224 14 L224 191 L46 191 L46 260 L224 260 L224 440 L293 440 L293 260 L471 260 L471 191 L293 191 L293 14 L224 14 Z "/>
<glyph glyph-name="comma" unicode="," horiz-adv-x="210" d="M102 94 Q124 94 138 79 Q157 61 159 27 Q159 24 159 22 Q159 -12 140 -54 Q123 -92 93 -127 L74 -127 L50 -108 Q71 -81 87 -47 Q98 -26 103 -4 Q82 -5 69 6 Q54 20 53 42 Q53 56 59 69 Q73 94 102 94 Z "/>
<glyph glyph-name="hyphen" unicode="-" horiz-adv-x="321" d="M284 262 L284 191 L37 191 L37 262 L284 262 Z "/>
<glyph glyph-name="period" unicode="." horiz-adv-x="199" d="M100 93 Q120 93 134.5 78.5 Q149 64 149 44 Q149 23 135 9 Q121 -5 100 -5 Q80 -5 65.5 9 Q51 23 51 44 Q51 64 65.5 78.5 Q80 93 100 93 Z "/>
<glyph glyph-name="slash" unicode="/" horiz-adv-x="350" d="M340 673 L90 0 L9 0 L260 673 L340 673 Z "/>
<glyph glyph-name="zero" unicode="0" horiz-adv-x="528" d="M264 688 Q326 688 368 660 Q402 637 431 590 Q492 492 492 331 Q492 168 432 78 Q400 31 361 10.5 Q322 -10 265 -10 Q199 -10 156 17 Q122 39 94 83 Q37 173 37 329 Q37 490 95 587 Q126 640 165.5 664 Q205 688 264 688 Z M263 612 Q198 612 164 552 Q124 483 124 329 Q124 217 147 156 Q180 67 263 67 Q343 67 378 150 Q405 215 405 329 Q405 486 360 557 Q325 612 263 612 Z "/>
<glyph glyph-name="one" unicode="1" horiz-adv-x="355" d="M286 673 L286 35 L243 0 L201 0 L201 571 L77 475 L32 532 L210 673 L286 673 Z "/>
<glyph glyph-name="two" unicode="2" horiz-adv-x="482" d="M239 686 L253 686 Q388 686 425 582 Q438 546 438 509 Q438 450 406 394 Q380 350 304 264 Q248 201 163 113 L122 71 L450 71 L450 43 L415 0 L32 0 L32 71 L108 155 L262 321 Q307 372 327 406 Q353 451 353 495 Q353 541 324 572 Q290 607 236 607 Q231 607 227 607 Q174 604 113 564 L67 628 Q152 685 239 686 Z "/>
<glyph glyph-name="three" unicode="3" horiz-adv-x="475" d="M202 686 Q305 686 363 633 Q417 584 415 505 Q413 460 391 422 Q355 362 289 354 Q365 348 410 287 Q445 241 445 183 Q445 82 358 29 Q304 -6 208 -6 Q204 -6 197 -6 Q136 -4 88 11 L56 51 L56 81 Q116 68 181 68 Q185 68 192 68 Q282 71 321 99 Q359 127 359 181 Q359 242 303 282 Q271 306 234.5 315 Q198 324 137 324 L137 389 L222 389 Q279 389 310 427 Q331 453 331 491 Q331 498 330 505 Q325 546 298 571 Q262 603 206 606 Q196 607 186 607 Q148 607 91 596 L91 667 Q157 687 202 686 Z "/>
<glyph glyph-name="four" unicode="4" horiz-adv-x="530" d="M401 673 L401 238 L507 238 L507 161 L401 161 L401 35 L358 0 L316 0 L316 161 L23 161 L23 236 L309 673 L401 673 Z M316 562 L107 238 L316 238 L316 562 Z "/>
<glyph glyph-name="five" unicode="5" horiz-adv-x="474" d="M386 673 L386 602 L153 602 L140 400 Q180 407 214 407 Q235 407 255 404 Q296 399 330 384 Q395 353 421 280 Q435 242 436 198 Q437 160 425 125 Q404 64 349 29 Q295 -6 199 -6 Q195 -6 188 -6 Q127 -4 80 11 L48 52 L48 82 Q107 68 172 68 Q176 68 183 68 Q273 71 312 99 Q351 129 352 195 Q352 251 328 282 Q296 324 218 333 Q199 335 174 335 Q155 335 132 334 Q105 332 52 327 L72 673 L386 673 Z "/>
<glyph glyph-name="six" unicode="6" horiz-adv-x="513" d="M330 682 Q335 682 343 682 Q370 682 389 680 L423 638 L423 608 Q387 613 358 613 Q245 613 187 525 Q168 496 157 462 Q139 413 132 343 Q185 417 279 417 Q364 417 416 371 Q479 316 479 207 Q479 102 417 43 Q360 -12 265 -12 Q172 -12 121 37 Q90 67 74 110 Q51 167 51 253 L51 291 Q51 406 89 504 Q123 587 179 629 Q242 676 330 682 Z M274 345 Q233 345 196 320 Q140 282 132 236 Q132 144 173 101 Q208 65 268 65 Q321 65 354 101 Q393 142 393 211 Q393 270 360 307 Q327 345 274 345 Z "/>
<glyph glyph-name="seven" unicode="7" horiz-adv-x="495" d="M465 673 L465 611 L227 47 L169 0 L117 0 L377 602 L30 602 L30 673 L465 673 Z "/>
<glyph glyph-name="eight" unicode="8" horiz-adv-x="531" d="M264 687 Q350 687 405 645 Q455 606 455 530 Q455 473 422 428 Q401 399 328 350 Q403 319 444 272 Q490 221 489 157 Q488 92 439 48 Q379 -10 264 -10 Q165 -10 102 35 Q41 79 41 163 Q41 220 83 268 Q128 318 205 347 Q158 375 126 412 Q76 470 76 530 Q76 610 127 647 Q180 687 264 687 Z M266 629 Q213 629 185 599 Q161 573 161 531 Q161 489 184 452 Q216 405 268 381 Q320 407 348 453 Q370 489 370 534 Q370 576 345 601 Q317 629 266 629 Z M267 322 Q194 291 167 261 Q130 220 131 166 Q131 113 171 85 Q207 60 266 60 Q331 60 368 91 Q402 119 402 165 Q403 219 368 257 Q338 289 267 322 Z "/>
<glyph glyph-name="nine" unicode="9" horiz-adv-x="512" d="M251 688 Q344 688 395 639 Q471 567 471 371 Q471 270 456 206 Q440 137 402 89 Q329 -4 186 -4 Q160 -4 127 0 L95 41 L95 70 Q131 65 158 65 Q272 65 325 118 Q385 178 385 333 Q364 306 338 289 Q293 260 237 260 Q152 260 101 306 Q37 361 37 470 Q37 574 99 633 Q156 688 251 688 Z M249 611 Q196 611 162 575 Q123 535 123 465 Q123 407 156 370 Q189 332 242 332 Q302 332 341 368 Q377 402 377 453 Q377 537 343 576 Q312 611 249 611 Z "/>
<glyph glyph-name="colon" unicode=":" horiz-adv-x="200" d="M100 280 Q120 280 134.5 265.5 Q149 251 149 231 Q149 210 135 196 Q121 182 100 182 Q80 182 65.5 196 Q51 210 51 231 Q51 251 65.5 265.5 Q80 280 100 280 Z M100 93 Q120 93 134.5 78.5 Q149 64 149 44 Q149 23 135 9 Q121 -5 100 -5 Q80 -5 65.5 9 Q51 23 51 44 Q51 64 65.5 78.5 Q80 93 100 93 Z "/>
<glyph glyph-name="semicolon" unicode=";" horiz-adv-x="210" d="M102 94 Q124 94 138 79 Q157 61 159 27 Q159 24 159 22 Q159 -12 140 -54 Q123 -92 93 -127 L74 -127 L50 -108 Q71 -81 87 -47 Q98 -26 103 -4 Q82 -5 69 6 Q54 20 53 42 Q53 56 59 69 Q73 94 102 94 Z M101 182 Q81 182 66.5 196.5 Q52 211 52 231 Q52 251 66.5 265.5 Q81 280 101 280 Q122 280 136 266 Q150 252 150 231 Q150 211 135.5 196.5 Q121 182 101 182 Z "/>
<glyph glyph-name="less" unicode="&lt;" horiz-adv-x="508" d="M466 573 L466 498 L132 332 L466 186 L466 110 L41 305 L41 352 L466 573 Z "/>
<glyph glyph-name="equal" unicode="=" horiz-adv-x="517" d="M471 285 L46 285 L46 354 L471 354 L471 285 Z M471 97 L46 97 L46 166 L471 166 L471 97 Z "/>
<glyph glyph-name="greater" unicode="&gt;" horiz-adv-x="508" d="M41 573 L466 352 L466 305 L41 110 L41 186 L375 332 L41 498 L41 573 Z "/>
<glyph glyph-name="question" unicode="?" horiz-adv-x="546" d="M324 195 L236 195 L236 249 Q236 298 264 334 Q281 357 338 409 Q378 445 395 474.5 Q412 504 412 539 Q412 593 373 623 Q339 650 286 650 Q216 650 186 608 Q159 572 159 498 L76 498 Q76 727 291 727 Q394 727 450 669 Q500 619 500 538 Q500 489 478.5 451 Q457 413 402 363 Q352 318 338 296 Q324 274 324 241 L324 195 Z M324 102 L324 0 L236 0 L236 102 L324 102 Z "/>
<glyph glyph-name="at" unicode="@" horiz-adv-x="803" d="M404 683 Q565 683 666 584 Q709 542 734 479 Q759 416 760 347 Q761 290 746.5 239.5 Q732 189 705 155 Q661 99 585 101 Q532 103 505 135 Q462 101 401 101 Q390 101 378 102 Q316 107 273 149 Q222 200 222 295 Q222 396 281 452 Q330 496 404 498 Q451 498 493 474 L539 511 L564 511 L564 195 Q564 184 574.5 177.5 Q585 171 602 172 Q641 173 662 209 Q689 257 689 325 Q689 336 688 347 Q685 403 665 453.5 Q645 504 613 537 Q538 613 403 613 Q288 613 206 532 Q117 445 117 310 Q117 201 162 127 Q221 30 350 9 Q381 4 414 4 Q451 4 492 10 L492 -16 L466 -48 Q422 -56 379 -56 Q343 -56 309 -50 Q188 -28 119 62 Q46 158 46 309 Q46 400 84 480 Q115 548 170 596 Q268 683 404 683 Z M407 435 Q360 431 332 401 Q294 364 294 298 Q294 224 334 189 Q357 168 393 163 Q404 162 414 162 Q460 162 492 189 L492 421 Q455 436 421 436 Q414 436 407 435 Z "/>
<glyph glyph-name="A" unicode="A" horiz-adv-x="655" d="M466 215 L190 215 L114 0 L17 0 L272 716 L390 716 L641 0 L540 0 L466 215 Z M440 292 L330 618 L213 292 L440 292 Z "/>
<glyph glyph-name="B" unicode="B" horiz-adv-x="655" d="M78 0 L78 716 L368 716 Q468 716 524 666 Q581 614 581 534 Q581 424 481 379 Q554 351 585 305 Q612 265 612 204 Q612 118 557 60 Q500 0 400 0 L78 0 Z M169 408 L346 408 Q416 408 449 433 Q489 463 489 522 Q489 580 449 610 Q416 635 346 635 L169 635 L169 408 Z M169 81 L391 81 Q457 81 491 118 Q521 150 521 204 Q521 266 482 299 Q448 327 391 327 L169 327 L169 81 Z "/>
<glyph glyph-name="C" unicode="C" horiz-adv-x="709" d="M650 497 L556 497 Q542 569 504 603 Q456 646 364 646 Q251 646 191 558 Q138 482 138 356 Q138 216 209 138 Q271 70 371 70 Q433 70 478 96 Q517 120 538 159 Q559 200 571 268 L665 268 Q632 -11 372 -11 Q232 -11 151 71 Q97 125 70 205 Q47 274 47 353 Q47 525 147 636 Q229 727 373 727 Q499 727 569 663 Q629 606 650 497 Z "/>
<glyph glyph-name="D" unicode="D" horiz-adv-x="709" d="M87 0 L87 716 L363 716 Q508 716 586 608 Q654 513 654 358 Q654 180 566 84 Q489 0 363 0 L87 0 Z M178 81 L347 81 Q460 81 515 161 Q563 231 563 358 Q563 503 500 574 Q446 635 347 635 L178 635 L178 81 Z "/>
<glyph glyph-name="E" unicode="E" horiz-adv-x="655" d="M179 326 L179 81 L601 81 L601 0 L88 0 L88 716 L584 716 L584 635 L179 635 L179 407 L569 407 L569 326 L179 326 Z "/>
<glyph glyph-name="F" unicode="F" horiz-adv-x="600" d="M179 326 L179 0 L88 0 L88 716 L568 716 L568 635 L179 635 L179 407 L521 407 L521 326 L179 326 Z "/>
<glyph glyph-name="G" unicode="G" horiz-adv-x="764" d="M696 377 L696 0 L638 0 L615 101 Q513 -11 371 -11 Q215 -11 123 104 Q43 205 43 356 Q43 457 81 540 Q114 612 172 659 Q256 727 386 727 Q542 727 625 632 Q651 604 664 575.5 Q677 547 686 501 L593 501 Q577 573 515 612 Q462 646 385 646 Q264 646 194 558 Q134 481 134 361 Q134 295 154 236.5 Q174 178 210 140 Q275 69 391 69 Q495 69 559 138 Q615 197 615 284 L615 296 L397 296 L397 377 L696 377 Z "/>
<glyph glyph-name="H" unicode="H" horiz-adv-x="709" d="M541 326 L172 326 L172 0 L81 0 L81 716 L172 716 L172 407 L541 407 L541 716 L632 716 L632 0 L541 0 L541 326 Z "/>
<glyph glyph-name="I" unicode="I" horiz-adv-x="273" d="M191 716 L191 0 L98 0 L98 716 L191 716 Z "/>
<glyph glyph-name="J" unicode="J" horiz-adv-x="491" d="M327 716 L418 716 L418 190 Q418 99 364 45 Q309 -11 214 -11 Q117 -11 64 47 Q17 98 17 179 L17 230 L110 230 L110 195 Q110 129 141 95 Q169 66 217 66 Q276 66 305 110 Q327 144 327 223 L327 716 Z "/>
<glyph glyph-name="K" unicode="K" horiz-adv-x="655" d="M169 251 L169 0 L78 0 L78 716 L169 716 L169 354 L526 716 L643 716 L351 424 L646 0 L538 0 L286 367 L169 251 Z "/>
<glyph glyph-name="L" unicode="L" horiz-adv-x="546" d="M170 716 L170 81 L523 81 L523 0 L79 0 L79 716 L170 716 Z "/>
<glyph glyph-name="M" unicode="M" horiz-adv-x="818" d="M460 0 L364 0 L160 601 L160 0 L74 0 L74 716 L200 716 L413 93 L622 716 L748 716 L748 0 L662 0 L662 601 L460 0 Z "/>
<glyph glyph-name="N" unicode="N" horiz-adv-x="709" d="M634 716 L634 0 L532 0 L161 581 L161 0 L75 0 L75 716 L174 716 L548 131 L548 716 L634 716 Z "/>
<glyph glyph-name="O" unicode="O" horiz-adv-x="764" d="M382 727 Q549 727 645 612 Q728 512 728 358 Q728 181 620 78 Q527 -11 383 -11 Q216 -11 120 104 Q37 204 37 358 Q37 535 145 638 Q238 727 382 727 Z M382 646 Q259 646 189 556 Q128 479 128 358 Q128 219 207 139 Q275 70 382 70 Q505 70 575 159 Q636 237 636 358 Q636 497 557 577 Q488 646 382 646 Z "/>
<glyph glyph-name="P" unicode="P" horiz-adv-x="655" d="M180 303 L180 0 L89 0 L89 716 L384 716 Q498 716 555 654 Q605 600 605 506 Q605 411 543 354 Q487 303 404 303 L180 303 Z M180 384 L371 384 Q441 384 478 422 Q510 454 510 509 Q510 573 468 606 Q432 635 371 635 L180 635 L180 384 Z "/>
<glyph glyph-name="Q" unicode="Q" horiz-adv-x="764" d="M569 38 Q488 -11 382 -11 Q216 -11 120 104 Q37 204 37 358 Q37 535 145 638 Q238 727 383 727 Q548 727 645 612 Q728 512 728 358 Q728 191 627 84 L719 9 L673 -49 L569 38 Z M559 139 Q595 176 615.5 233.5 Q636 291 636 358 Q636 497 557 577 Q489 646 382 646 Q259 646 189 557 Q128 479 128 358 Q128 219 207 139 Q276 70 382 70 Q445 70 498 96 L426 155 L472 210 L559 139 Z "/>
<glyph glyph-name="R" unicode="R" horiz-adv-x="709" d="M182 308 L182 0 L91 0 L91 716 L420 716 Q534 716 590 660 Q639 611 639 524 Q639 463 612.5 423 Q586 383 525 353 Q574 333 597 302 Q611 282 616 255 Q621 228 623 167 Q625 91 632.5 66 Q640 41 666 23 L666 0 L555 0 Q548 17 541 48 Q534 79 534 97 L535 208 Q535 220 526 242.5 Q517 265 509 276 Q481 308 417 308 L182 308 Z M182 389 L403 389 Q481 389 514 423 Q544 452 544 512 Q544 580 505 609 Q471 635 403 635 L182 635 L182 389 Z "/>
<glyph glyph-name="S" unicode="S" horiz-adv-x="655" d="M585 510 L499 510 Q498 582 445 618 Q400 650 321 650 Q243 650 199 613 Q160 582 160 532 Q160 492 186.5 469 Q213 446 278 428 L448 384 Q610 341 610 204 Q610 159 588.5 115 Q567 71 531 43 Q461 -11 330 -11 Q164 -11 89 89 Q49 143 47 234 L133 234 Q133 171 171 127 Q221 69 336 69 Q424 69 467 98 Q490 114 504 141 Q518 168 518 196 Q518 276 387 310 L209 356 Q69 392 69 520 Q69 623 146 678 Q213 727 323 727 Q479 727 546 636 Q585 583 585 522 Q585 521 585 510 Z "/>
<glyph glyph-name="T" unicode="T" horiz-adv-x="600" d="M348 635 L348 0 L257 0 L257 635 L21 635 L21 716 L582 716 L582 635 L348 635 Z "/>
<glyph glyph-name="U" unicode="U" horiz-adv-x="709" d="M542 716 L633 716 L633 225 Q633 109 548 45 Q475 -11 357 -11 Q221 -11 147 60 Q83 123 83 225 L83 716 L174 716 L174 225 Q174 146 228 105 Q276 70 357 70 Q449 70 499 117 Q542 158 542 225 L542 716 Z "/>
<glyph glyph-name="V" unicode="V" horiz-adv-x="655" d="M385 0 L286 0 L29 716 L127 716 L338 110 L536 716 L633 716 L385 0 Z "/>
<glyph glyph-name="W" unicode="W" horiz-adv-x="927" d="M731 0 L631 0 L466 588 L305 0 L205 0 L22 716 L124 716 L259 135 L418 716 L516 716 L679 135 L811 716 L912 716 L731 0 Z "/>
<glyph glyph-name="X" unicode="X" horiz-adv-x="655" d="M384 367 L638 0 L524 0 L330 299 L133 0 L22 0 L276 367 L38 716 L149 716 L332 435 L517 716 L626 716 L384 367 Z "/>
<glyph glyph-name="Y" unicode="Y" horiz-adv-x="655" d="M380 281 L380 0 L289 0 L289 281 L13 716 L125 716 L336 368 L539 716 L649 716 L380 281 Z "/>
<glyph glyph-name="Z" unicode="Z" horiz-adv-x="600" d="M571 716 L571 633 L142 81 L573 81 L573 0 L28 0 L28 81 L458 635 L55 635 L55 716 L571 716 Z "/>
<glyph glyph-name="bracketleft" unicode="[" horiz-adv-x="372" d="M303 716 L303 649 L145 649 L145 -35 L303 -35 L303 -102 L69 -102 L69 716 L303 716 Z "/>
<glyph glyph-name="backslash" unicode="\" horiz-adv-x="350" d="M90 673 L340 0 L260 0 L9 673 L90 673 Z "/>
<glyph glyph-name="bracketright" unicode="]" horiz-adv-x="372" d="M303 716 L303 -102 L69 -102 L69 -35 L227 -35 L227 649 L69 649 L69 716 L303 716 Z "/>
<glyph glyph-name="asciicircum" unicode="^" horiz-adv-x="460" d="M193 696 L265 696 L417 323 L349 323 L229 618 L111 323 L43 323 L193 696 Z "/>
<glyph glyph-name="underscore" unicode="_" horiz-adv-x="384" d="M387 -85 L387 -149 L-4 -149 L-4 -85 L387 -85 Z "/>
<glyph glyph-name="grave" unicode="`" horiz-adv-x="491" d="M238 727 L332 581 L273 581 L127 727 L238 727 Z "/>
<glyph glyph-name="a" unicode="a" horiz-adv-x="546" d="M525 59 L525 -2 Q491 -11 471 -11 Q429 -11 408.5 6.5 Q388 24 384 64 Q340 24 299 6.5 Q258 -11 209 -11 Q126 -11 80 35 Q40 75 40 138 Q40 210 91 249 Q135 282 237 295 L296 302 Q344 309 362.5 321 Q381 333 381 359 L381 373 Q381 449 265 449 Q204 449 175 425 Q150 403 146 360 L63 360 Q66 428 97 464 Q150 525 269 525 Q463 525 463 385 L463 98 Q463 58 507 58 Q515 58 525 59 Z M381 258 Q350 244 294 236 L249 229 Q181 220 151 195 Q125 174 125 138 Q125 100 151.5 80 Q178 60 227 60 Q299 60 349 106 Q381 136 381 173 L381 258 Z "/>
<glyph glyph-name="b" unicode="b" horiz-adv-x="546" d="M53 716 L134 716 L134 444 Q190 525 293 525 Q402 525 461 444 Q513 374 513 260 Q513 127 444 53 Q384 -11 289 -11 Q183 -11 127 70 L127 0 L53 0 L53 716 Z M278 448 Q208 448 169 388 Q134 336 134 254 Q134 162 178 111 Q217 66 278 66 Q351 66 392 124 Q428 174 428 254 Q428 348 382 401 Q341 448 278 448 Z "/>
<glyph glyph-name="c" unicode="c" horiz-adv-x="491" d="M462 342 L380 342 Q372 397 337 425 Q306 449 258 449 Q186 449 148 389 Q115 337 115 250 Q115 157 159 108 Q198 65 262 65 Q365 65 385 177 L468 177 Q460 81 399 32 Q346 -11 260 -11 Q147 -11 84 69 Q30 138 30 250 Q30 384 101 459 Q162 525 259 525 Q371 525 427 450 Q456 411 462 342 Z "/>
<glyph glyph-name="d" unicode="d" horiz-adv-x="546" d="M487 716 L487 0 L414 0 L414 71 Q382 28 343.5 8 Q305 -12 253 -12 Q140 -12 79 70 Q26 141 26 259 Q26 388 95 462 Q154 525 248 525 Q352 525 405 447 L405 716 L487 716 Z M261 448 Q189 448 147 388 Q111 335 111 254 Q111 163 158 110 Q199 65 263 65 Q333 65 371 123 Q405 173 405 253 Q405 348 361 402 Q322 448 261 448 Z "/>
<glyph glyph-name="e" unicode="e" horiz-adv-x="546" d="M503 233 L124 233 Q125 167 152 129 Q195 65 276 65 Q376 65 411 160 L493 160 Q476 74 412 28 Q355 -11 273 -11 Q156 -11 94 69 Q39 138 39 253 Q39 386 111 460 Q174 525 274 525 Q352 525 409 485 Q459 451 482 394 Q504 341 503 233 Z M415 300 Q415 371 370 413 Q332 449 274 449 Q207 449 166 403 Q131 364 127 300 L415 300 Z "/>
<glyph glyph-name="f" unicode="f" horiz-adv-x="273" d="M253 514 L253 447 L168 447 L168 0 L87 0 L87 447 L18 447 L18 514 L87 514 L87 602 Q87 661 123 692 Q154 719 207 719 Q229 719 253 714 L253 646 L244 646 Q233 647 225 647 Q168 647 168 595 L168 514 L253 514 Z "/>
<glyph glyph-name="g" unicode="g" horiz-adv-x="546" d="M404 514 L480 514 L480 84 Q480 -7 467.5 -60 Q455 -113 426 -148 Q401 -179 354.5 -196.5 Q308 -214 250 -214 Q153 -214 99 -168 Q51 -127 45 -59 L129 -59 Q135 -99 159 -118 Q195 -145 253 -145 Q333 -145 367 -97 Q396 -56 396 43 L396 76 Q362 30 325.5 9.5 Q289 -11 242 -11 Q154 -11 93 55 Q28 125 28 249 Q28 381 97 458 Q156 525 248 525 Q345 525 404 437 L404 514 Z M256 450 Q185 450 147 390 Q113 339 113 254 Q113 159 156 109 Q194 65 256 65 Q327 65 364 122 Q396 171 396 254 Q396 352 354 404 Q317 450 256 450 Z "/>
<glyph glyph-name="h" unicode="h" horiz-adv-x="546" d="M69 716 L150 716 L150 442 Q186 488 223 506.5 Q260 525 315 525 Q396 525 439 483 Q477 446 477 385 L477 0 L396 0 L396 352 Q396 405 363 430 Q332 453 290 453 Q222 453 183 400 Q150 354 150 281 L150 0 L69 0 L69 716 Z "/>
<glyph glyph-name="i" unicode="i" horiz-adv-x="218" d="M146 514 L146 0 L65 0 L65 514 L146 514 Z M147 716 L147 613 L65 613 L65 716 L147 716 Z "/>
<glyph glyph-name="j" unicode="j" horiz-adv-x="218" d="M69 514 L150 514 L150 -108 Q150 -214 8 -214 Q-7 -214 -18 -212 L-18 -142 Q-10 -143 -3 -143 L2 -143 Q40 -143 54.5 -128.5 Q69 -114 69 -75 L69 514 Z M150 716 L150 613 L69 613 L69 716 L150 716 Z "/>
<glyph glyph-name="k" unicode="k" horiz-adv-x="491" d="M138 716 L138 296 L356 514 L461 514 L282 337 L492 0 L392 0 L218 279 L138 201 L138 0 L57 0 L57 716 L138 716 Z "/>
<glyph glyph-name="l" unicode="l" horiz-adv-x="218" d="M149 716 L149 0 L67 0 L67 716 L149 716 Z "/>
<glyph glyph-name="m" unicode="m" horiz-adv-x="818" d="M69 514 L145 514 L145 439 Q177 485 214 505 Q251 525 303 525 Q353 525 385.5 507 Q418 489 441 449 Q478 491 512.5 508 Q547 525 598 525 Q677 525 715 484 Q748 448 748 384 L748 0 L666 0 L666 352 Q666 403 637 430 Q613 453 570 453 Q517 453 481 410 Q450 372 450 321 L450 0 L368 0 L368 352 Q368 404 340 430 Q315 453 273 453 Q218 453 182 410 Q151 373 151 321 L151 0 L69 0 L69 514 Z "/>
<glyph glyph-name="n" unicode="n" horiz-adv-x="546" d="M69 514 L145 514 L145 426 Q178 479 218 502 Q258 525 315 525 Q395 525 439 483 Q478 446 478 387 L478 0 L397 0 L397 354 Q397 403 365 430 Q336 453 291 453 Q223 453 184 400 Q151 354 151 281 L151 0 L69 0 L69 514 Z "/>
<glyph glyph-name="o" unicode="o" horiz-adv-x="546" d="M270 525 Q387 525 448 444 Q501 373 501 254 Q501 120 432 50 Q371 -11 269 -11 Q151 -11 89 68 Q35 137 35 254 Q35 390 106 462 Q167 525 270 525 Z M270 449 Q195 449 155 390 Q120 338 120 254 Q120 159 165 109 Q204 65 269 65 Q343 65 382 122 Q416 171 416 254 Q416 351 372 403 Q334 449 270 449 Z "/>
<glyph glyph-name="p" unicode="p" horiz-adv-x="546" d="M53 -214 L53 514 L129 514 L129 435 Q186 525 292 525 Q401 525 461 441 Q513 368 513 249 Q513 122 445 51 Q386 -11 292 -11 Q197 -11 135 58 L135 -214 L53 -214 Z M279 448 Q209 448 169 388 Q135 336 135 254 Q135 162 179 111 Q218 66 279 66 Q351 66 392 124 Q428 175 428 254 Q428 347 382 401 Q341 448 279 448 Z "/>
<glyph glyph-name="q" unicode="q" horiz-adv-x="546" d="M487 -214 L405 -214 L405 67 Q350 -11 247 -11 Q136 -11 77 67 Q26 136 26 249 Q26 384 95 460 Q155 526 250 526 Q356 526 414 443 L414 514 L487 514 L487 -214 Z M261 449 Q189 449 147 388 Q111 335 111 254 Q111 163 158 111 Q198 66 261 66 Q332 66 371 124 Q405 174 405 254 Q405 349 361 402 Q322 449 261 449 Z "/>
<glyph glyph-name="r" unicode="r" horiz-adv-x="327" d="M68 514 L144 514 L144 419 Q178 476 211 501 Q244 526 285 526 Q298 526 315 523 L315 439 Q272 438 249.5 433 Q227 428 208 414 Q150 371 150 267 L150 0 L68 0 L68 514 Z "/>
<glyph glyph-name="s" unicode="s" horiz-adv-x="491" d="M430 373 L344 373 Q340 449 240 449 Q185 449 156 427 Q130 409 130 378 Q130 328 226 306 L305 288 Q386 269 420 232 Q450 200 450 147 Q450 69 385 26 Q329 -11 239 -11 Q130 -11 80 37 Q36 78 33 159 L119 159 Q126 115 144 97 Q175 65 245 65 Q303 65 336 88 Q365 109 365 140 Q365 167 346.5 183.5 Q328 200 286 210 L209 228 Q120 249 85 278 Q45 311 45 373 Q45 447 106 489 Q158 525 243 525 Q338 525 387 480 Q429 442 430 373 Z "/>
<glyph glyph-name="t" unicode="t" horiz-adv-x="273" d="M249 514 L249 447 L165 447 L165 106 Q165 79 174 70 Q183 61 210 61 Q233 61 249 64 L249 -4 Q212 -11 183 -11 Q84 -11 84 70 L84 447 L14 447 L14 514 L84 514 L84 656 L165 656 L165 514 L249 514 Z "/>
<glyph glyph-name="u" unicode="u" horiz-adv-x="546" d="M473 0 L399 0 L399 81 Q364 32 324.5 10.5 Q285 -11 228 -11 Q147 -11 103 31 Q64 68 64 127 L64 514 L145 514 L145 160 Q145 111 178 84 Q206 61 251 61 Q320 61 358 114 Q392 160 392 233 L392 514 L473 514 L473 0 Z "/>
<glyph glyph-name="v" unicode="v" horiz-adv-x="491" d="M280 0 L191 0 L10 514 L103 514 L239 98 L385 514 L477 514 L280 0 Z "/>
<glyph glyph-name="w" unicode="w" horiz-adv-x="709" d="M544 0 L451 0 L346 403 L247 0 L155 0 L6 514 L96 514 L202 114 L300 514 L400 514 L501 114 L603 514 L695 514 L544 0 Z "/>
<glyph glyph-name="x" unicode="x" horiz-adv-x="491" d="M287 266 L465 0 L370 0 L241 197 L110 0 L17 0 L199 262 L26 514 L120 514 L244 328 L368 514 L460 514 L287 266 Z "/>
<glyph glyph-name="y" unicode="y" horiz-adv-x="491" d="M381 514 L469 514 L240 -108 Q201 -214 107 -214 Q77 -214 53 -202 L53 -128 Q77 -133 95 -133 Q122 -133 137 -122 Q152 -111 162 -84 L193 -2 L20 514 L108 514 L238 113 L381 514 Z "/>
<glyph glyph-name="z" unicode="z" horiz-adv-x="491" d="M435 514 L435 441 L129 72 L448 72 L448 0 L30 0 L30 74 L338 442 L51 442 L51 514 L435 514 Z "/>
<glyph glyph-name="braceleft" unicode="{" horiz-adv-x="382" d="M313 719 L335 690 L335 666 Q319 666 289 663 Q246 659 231 649 Q209 634 209 597 L209 413 Q209 327 102 311 L102 305 Q209 289 209 204 L209 20 Q209 -17 231 -31 Q247 -43 289 -47 Q312 -49 335 -49 L335 -74 L313 -102 Q296 -102 284 -101 Q210 -96 174 -72 Q134 -45 134 26 L134 184 Q134 231 100 250 Q71 267 16 267 L16 349 Q76 349 104 368 Q134 387 134 426 L134 431 L134 591 Q134 662 174 689 Q208 712 284 718 Q296 719 313 719 Z "/>
<glyph glyph-name="bar" unicode="|" horiz-adv-x="200" d="M69 688 L131 688 L131 28 L69 28 L69 688 Z "/>
<glyph glyph-name="braceright" unicode="}" horiz-adv-x="382" d="M46 690 L68 719 Q85 719 97 718 Q173 712 207 689 Q247 662 247 591 L247 431 L247 426 Q247 387 277 368 Q305 349 365 349 L365 267 Q302 267 273 245 Q247 225 247 184 L247 26 Q247 -45 207 -72 Q171 -96 97 -101 Q85 -102 68 -102 L46 -74 L46 -49 Q70 -49 92 -47 Q134 -43 150 -31 Q172 -17 172 20 L172 204 Q172 289 279 305 L279 311 Q172 327 172 413 L172 597 Q172 634 150 649 Q135 659 92 663 Q62 666 46 666 L46 690 Z "/>
<glyph glyph-name="asciitilde" unicode="~" horiz-adv-x="491" d="M405 404 L457 404 Q457 396 457 385 Q457 327 425 293 Q397 264 354 264 Q314 264 274 289 L179 351 Q157 364 136 364 Q107 364 92 330 Q87 318 84 288 L32 288 Q40 430 138 430 Q166 430 191 415 L306 347 Q334 331 355 331 Q405 331 405 392 Q405 399 405 404 Z "/>
<glyph glyph-name="Adieresis" unicode="Ä" horiz-adv-x="655" d="M466 215 L190 215 L114 0 L17 0 L272 716 L390 716 L641 0 L540 0 L466 215 Z M440 292 L330 618 L213 292 L440 292 Z M301 897 L301 796 L199 796 L199 897 L301 897 Z M460 897 L460 796 L358 796 L358 897 L460 897 Z "/>
<glyph glyph-name="Aring" unicode="Å" horiz-adv-x="655" d="M466 215 L190 215 L114 0 L17 0 L272 716 L390 716 L641 0 L540 0 L466 215 Z M440 292 L330 618 L213 292 L440 292 Z M329 936 Q367 936 393 908 Q415 883 415 850 Q415 812 387 786 Q362 764 329 764 Q291 764 265 792 Q243 817 243 850 Q243 888 271 914 Q296 936 329 936 Z M329 893 Q311 893 298.5 880.5 Q286 868 286 850 Q286 832 298.5 819.5 Q311 807 329 807 Q347 807 359.5 819.5 Q372 832 372 850 Q372 868 359.5 880.5 Q347 893 329 893 Z "/>
<glyph glyph-name="Ccedilla" unicode="Ç" horiz-adv-x="709" d="M378 -11 L360 -55 Q376 -53 387 -53 Q424 -53 444.5 -70 Q465 -87 465 -118 Q465 -164 428 -189 Q397 -210 344 -210 Q315 -210 290.5 -203.5 Q266 -197 221 -177 L242 -137 Q246 -139 250 -142 Q284 -159 301.5 -164.5 Q319 -170 338 -170 Q361 -170 376 -157.5 Q391 -145 391 -126 Q391 -89 346 -89 Q331 -89 315 -97 L304 -90 L340 -10 Q249 -3 189 39 Q117 89 80 180 Q47 259 47 355 Q47 531 147 639 Q228 727 374 727 Q607 727 650 497 L556 497 Q542 569 504 603 Q456 646 364 646 Q251 646 191 558 Q138 482 138 356 Q138 216 209 138 Q271 70 371 70 Q433 70 478 96 Q517 119 538 159 Q559 200 571 268 L665 268 Q632 -6 378 -11 Z "/>
<glyph glyph-name="Eacute" unicode="É" horiz-adv-x="655" d="M179 326 L179 81 L601 81 L601 0 L88 0 L88 716 L584 716 L584 635 L179 635 L179 407 L569 407 L569 326 L179 326 Z M360 922 L470 922 L324 777 L265 777 L360 922 Z "/>
<glyph glyph-name="Ntilde" unicode="Ñ" horiz-adv-x="709" d="M634 716 L634 0 L531 0 L161 581 L161 0 L75 0 L75 716 L174 716 L548 131 L548 716 L634 716 Z M459 900 L516 900 Q501 798 428 798 Q411 798 371 813 L324 829 Q309 835 296 835 Q274 835 264 799 L207 799 Q216 850 240 877 Q261 900 291 900 Q314 900 337 891 L378 875 Q405 864 423 864 Q448 864 459 900 Z "/>
<glyph glyph-name="Odieresis" unicode="Ö" horiz-adv-x="764" d="M354 897 L354 796 L252 796 L252 897 L354 897 Z M513 897 L513 796 L411 796 L411 897 L513 897 Z M382 727 Q549 727 645 612 Q728 512 728 358 Q728 181 620 78 Q527 -11 383 -11 Q216 -11 120 104 Q37 204 37 358 Q37 535 145 638 Q238 727 382 727 Z M382 646 Q259 646 189 556 Q128 479 128 358 Q128 219 207 139 Q275 70 382 70 Q505 70 575 159 Q636 237 636 358 Q636 497 557 577 Q488 646 382 646 Z "/>
<glyph glyph-name="Udieresis" unicode="Ü" horiz-adv-x="709" d="M329 897 L329 796 L227 796 L227 897 L329 897 Z M489 897 L489 796 L387 796 L387 897 L489 897 Z M542 716 L633 716 L633 225 Q633 109 548 45 Q475 -11 357 -11 Q221 -11 147 60 Q83 123 83 225 L83 716 L174 716 L174 225 Q174 146 228 105 Q276 70 357 70 Q449 70 499 117 Q542 158 542 225 L542 716 Z "/>
<glyph glyph-name="aacute" unicode="á" horiz-adv-x="546" d="M325 727 L436 727 L290 581 L230 581 L325 727 Z M525 59 L525 -2 Q491 -11 471 -11 Q429 -11 408.5 6.5 Q388 24 384 64 Q340 24 299 6.5 Q258 -11 209 -11 Q126 -11 80 35 Q40 75 40 138 Q40 210 91 249 Q135 282 237 295 L296 302 Q344 309 362.5 321 Q381 333 381 359 L381 373 Q381 449 265 449 Q204 449 175 425 Q150 403 146 360 L63 360 Q66 428 97 464 Q150 525 269 525 Q463 525 463 385 L463 98 Q463 58 507 58 Q515 58 525 59 Z M381 258 Q350 244 294 236 L249 229 Q181 220 151 195 Q125 174 125 138 Q125 100 151.5 80 Q178 60 227 60 Q299 60 349 106 Q381 136 381 173 L381 258 Z "/>
<glyph glyph-name="agrave" unicode="à" horiz-adv-x="546" d="M245 727 L340 581 L281 581 L135 727 L245 727 Z M525 59 L525 -2 Q491 -11 471 -11 Q429 -11 408.5 6.5 Q388 24 384 64 Q340 24 299 6.5 Q258 -11 209 -11 Q126 -11 80 35 Q40 75 40 138 Q40 210 91 249 Q135 282 237 295 L296 302 Q344 309 362.5 321 Q381 333 381 359 L381 373 Q381 449 265 449 Q204 449 175 425 Q150 403 146 360 L63 360 Q66 428 97 464 Q150 525 269 525 Q463 525 463 385 L463 98 Q463 58 507 58 Q515 58 525 59 Z M381 258 Q350 244 294 236 L249 229 Q181 220 151 195 Q125 174 125 138 Q125 100 151.5 80 Q178 60 227 60 Q299 60 349 106 Q381 136 381 173 L381 258 Z "/>
<glyph glyph-name="acircumflex" unicode="â" horiz-adv-x="546" d="M237 728 L330 728 L424 580 L362 580 L283 674 L206 580 L143 580 L237 728 Z M525 59 L525 -2 Q491 -11 471 -11 Q429 -11 408.5 6.5 Q388 24 384 64 Q340 24 299 6.5 Q258 -11 209 -11 Q126 -11 80 35 Q40 75 40 138 Q40 210 91 249 Q135 282 237 295 L296 302 Q344 309 362.5 321 Q381 333 381 359 L381 373 Q381 449 265 449 Q204 449 175 425 Q150 403 146 360 L63 360 Q66 428 97 464 Q150 525 269 525 Q463 525 463 385 L463 98 Q463 58 507 58 Q515 58 525 59 Z M381 258 Q350 244 294 236 L249 229 Q181 220 151 195 Q125 174 125 138 Q125 100 151.5 80 Q178 60 227 60 Q299 60 349 106 Q381 136 381 173 L381 258 Z "/>
<glyph glyph-name="adieresis" unicode="ä" horiz-adv-x="546" d="M253 702 L253 601 L151 601 L151 702 L253 702 Z M412 702 L412 601 L310 601 L310 702 L412 702 Z M525 59 L525 -2 Q491 -11 471 -11 Q429 -11 408.5 6.5 Q388 24 384 64 Q340 24 299 6.5 Q258 -11 209 -11 Q126 -11 80 35 Q40 75 40 138 Q40 210 91 249 Q135 282 237 295 L296 302 Q344 309 362.5 321 Q381 333 381 359 L381 373 Q381 449 265 449 Q204 449 175 425 Q150 403 146 360 L63 360 Q66 428 97 464 Q150 525 269 525 Q463 525 463 385 L463 98 Q463 58 507 58 Q515 58 525 59 Z M381 258 Q350 244 294 236 L249 229 Q181 220 151 195 Q125 174 125 138 Q125 100 151.5 80 Q178 60 227 60 Q299 60 349 106 Q381 136 381 173 L381 258 Z "/>
<glyph glyph-name="atilde" unicode="ã" horiz-adv-x="546" d="M379 704 L436 704 Q421 602 350 602 Q330 602 305 611 L250 632 Q231 640 217 640 Q194 640 184 603 L128 603 Q136 655 161 682 Q182 705 212 705 Q234 705 257 695 L298 679 Q326 668 344 668 Q368 668 379 704 Z M525 59 L525 -2 Q491 -11 471 -11 Q429 -11 408.5 6.5 Q388 24 384 64 Q340 24 299 6.5 Q258 -11 209 -11 Q126 -11 80 35 Q40 75 40 138 Q40 210 91 249 Q135 282 237 295 L296 302 Q344 309 362.5 321 Q381 333 381 359 L381 373 Q381 449 265 449 Q204 449 175 425 Q150 403 146 360 L63 360 Q66 428 97 464 Q150 525 269 525 Q463 525 463 385 L463 98 Q463 58 507 58 Q515 58 525 59 Z M381 258 Q350 244 294 236 L249 229 Q181 220 151 195 Q125 174 125 138 Q125 100 151.5 80 Q178 60 227 60 Q299 60 349 106 Q381 136 381 173 L381 258 Z "/>
<glyph glyph-name="aring" unicode="å" horiz-adv-x="546" d="M287 741 Q325 741 351 713 Q373 688 373 655 Q373 617 345 591 Q320 569 287 569 Q249 569 223 597 Q201 622 201 655 Q201 693 229 719 Q254 741 287 741 Z M287 698 Q269 698 256.5 685.5 Q244 673 244 655 Q244 637 256.5 624.5 Q269 612 287 612 Q305 612 317.5 624.5 Q330 637 330 655 Q330 673 317.5 685.5 Q305 698 287 698 Z M525 59 L525 -2 Q491 -11 471 -11 Q429 -11 408.5 6.5 Q388 24 384 64 Q340 24 299 6.5 Q258 -11 209 -11 Q126 -11 80 35 Q40 75 40 138 Q40 210 91 249 Q135 282 237 295 L296 302 Q344 309 362.5 321 Q381 333 381 359 L381 373 Q381 449 265 449 Q204 449 175 425 Q150 403 146 360 L63 360 Q66 428 97 464 Q150 525 269 525 Q463 525 463 385 L463 98 Q463 58 507 58 Q515 58 525 59 Z M381 258 Q350 244 294 236 L249 229 Q181 220 151 195 Q125 174 125 138 Q125 100 151.5 80 Q178 60 227 60 Q299 60 349 106 Q381 136 381 173 L381 258 Z "/>
<glyph glyph-name="ccedilla" unicode="ç" horiz-adv-x="491" d="M264 -11 L246 -54 Q262 -53 273 -53 Q351 -53 351 -118 Q351 -164 314 -189 Q283 -210 230 -210 Q202 -210 177.5 -203.5 Q153 -197 108 -177 L128 -137 Q170 -158 187 -164 Q204 -170 224 -170 Q247 -170 262 -157.5 Q277 -145 277 -126 Q277 -89 233 -89 Q218 -89 202 -96 L190 -90 L226 -9 Q128 4 75 81 Q30 148 30 250 Q30 384 101 459 Q162 525 259 525 Q371 525 427 450 Q456 411 462 342 L380 342 Q372 397 337 425 Q306 449 258 449 Q186 449 148 389 Q115 337 115 250 Q115 157 159 108 Q198 65 262 65 Q365 65 385 177 L468 177 Q460 83 401 34 Q348 -9 264 -11 Z "/>
<glyph glyph-name="eacute" unicode="é" horiz-adv-x="546" d="M330 727 L440 727 L294 581 L235 581 L330 727 Z M503 233 L124 233 Q125 167 152 129 Q195 65 276 65 Q376 65 411 160 L493 160 Q476 74 412 28 Q355 -11 273 -11 Q156 -11 94 69 Q39 138 39 253 Q39 386 111 460 Q174 525 274 525 Q352 525 409 485 Q459 451 482 394 Q504 341 503 233 Z M415 300 Q415 371 370 413 Q332 449 274 449 Q207 449 166 403 Q131 364 127 300 L415 300 Z "/>
<glyph glyph-name="egrave" unicode="è" horiz-adv-x="546" d="M263 727 L358 581 L299 581 L153 727 L263 727 Z M503 233 L124 233 Q125 167 152 129 Q195 65 276 65 Q376 65 411 160 L493 160 Q476 74 412 28 Q355 -11 273 -11 Q156 -11 94 69 Q39 138 39 253 Q39 386 111 460 Q174 525 274 525 Q352 525 409 485 Q459 451 482 394 Q504 341 503 233 Z M415 300 Q415 371 370 413 Q332 449 274 449 Q207 449 166 403 Q131 364 127 300 L415 300 Z "/>
<glyph glyph-name="ecircumflex" unicode="ê" horiz-adv-x="546" d="M234 728 L327 728 L422 580 L360 580 L281 674 L203 580 L140 580 L234 728 Z M503 233 L124 233 Q125 167 152 129 Q195 65 276 65 Q376 65 411 160 L493 160 Q476 74 412 28 Q355 -11 273 -11 Q156 -11 94 69 Q39 138 39 253 Q39 386 111 460 Q174 525 274 525 Q352 525 409 485 Q459 451 482 394 Q504 341 503 233 Z M415 300 Q415 371 370 413 Q332 449 274 449 Q207 449 166 403 Q131 364 127 300 L415 300 Z "/>
<glyph glyph-name="edieresis" unicode="ë" horiz-adv-x="546" d="M252 702 L252 601 L150 601 L150 702 L252 702 Z M411 702 L411 601 L309 601 L309 702 L411 702 Z M503 233 L124 233 Q125 167 152 129 Q195 65 276 65 Q376 65 411 160 L493 160 Q476 74 412 28 Q355 -11 273 -11 Q156 -11 94 69 Q39 138 39 253 Q39 386 111 460 Q174 525 274 525 Q352 525 409 485 Q459 451 482 394 Q504 341 503 233 Z M415 300 Q415 371 370 413 Q332 449 274 449 Q207 449 166 403 Q131 364 127 300 L415 300 Z "/>
<glyph glyph-name="iacute" unicode="í" horiz-adv-x="273" d="M173 514 L173 0 L92 0 L92 514 L173 514 Z M197 727 L308 727 L162 581 L103 581 L197 727 Z "/>
<glyph glyph-name="igrave" unicode="ì" horiz-adv-x="273" d="M173 514 L173 0 L92 0 L92 514 L173 514 Z M106 727 L200 581 L141 581 L-5 727 L106 727 Z "/>
<glyph glyph-name="icircumflex" unicode="î" horiz-adv-x="273" d="M174 514 L174 0 L92 0 L92 514 L174 514 Z M87 728 L180 728 L275 580 L213 580 L134 674 L56 580 L-7 580 L87 728 Z "/>
<glyph glyph-name="idieresis" unicode="ï" horiz-adv-x="273" d="M174 514 L174 0 L92 0 L92 514 L174 514 Z M105 695 L105 594 L3 594 L3 695 L105 695 Z M264 695 L264 594 L162 594 L162 695 L264 695 Z "/>
<glyph glyph-name="ntilde" unicode="ñ" horiz-adv-x="546" d="M69 514 L145 514 L145 426 Q178 479 218 502 Q258 525 315 525 Q395 525 439 483 Q478 446 478 387 L478 0 L397 0 L397 354 Q397 403 365 430 Q336 453 291 453 Q223 453 184 400 Q151 354 151 281 L151 0 L69 0 L69 514 Z M372 704 L428 704 Q414 602 342 602 Q322 602 297 611 L257 627 Q224 640 210 640 Q187 640 177 603 L120 603 Q129 655 153 682 Q174 705 204 705 Q226 705 250 695 L291 679 Q318 668 336 668 Q360 668 372 704 Z "/>
<glyph glyph-name="oacute" unicode="ó" horiz-adv-x="546" d="M325 727 L435 727 L289 581 L230 581 L325 727 Z M270 525 Q387 525 448 444 Q501 373 501 254 Q501 120 432 50 Q371 -11 269 -11 Q151 -11 89 68 Q35 137 35 254 Q35 390 106 462 Q167 525 270 525 Z M270 449 Q195 449 155 390 Q120 338 120 254 Q120 159 165 109 Q204 65 269 65 Q343 65 382 122 Q416 171 416 254 Q416 351 372 403 Q334 449 270 449 Z "/>
<glyph glyph-name="ograve" unicode="ò" horiz-adv-x="546" d="M250 727 L344 581 L285 581 L139 727 L250 727 Z M270 525 Q387 525 448 444 Q501 373 501 254 Q501 120 432 50 Q371 -11 269 -11 Q151 -11 89 68 Q35 137 35 254 Q35 390 106 462 Q167 525 270 525 Z M270 449 Q195 449 155 390 Q120 338 120 254 Q120 159 165 109 Q204 65 269 65 Q343 65 382 122 Q416 171 416 254 Q416 351 372 403 Q334 449 270 449 Z "/>
<glyph glyph-name="ocircumflex" unicode="ô" horiz-adv-x="546" d="M221 728 L314 728 L409 580 L346 580 L267 674 L190 580 L127 580 L221 728 Z M270 525 Q387 525 448 444 Q501 373 501 254 Q501 120 432 50 Q371 -11 269 -11 Q151 -11 89 68 Q35 137 35 254 Q35 390 106 462 Q167 525 270 525 Z M270 449 Q195 449 155 390 Q120 338 120 254 Q120 159 165 109 Q204 65 269 65 Q343 65 382 122 Q416 171 416 254 Q416 351 372 403 Q334 449 270 449 Z "/>
<glyph glyph-name="odieresis" unicode="ö" horiz-adv-x="546" d="M239 702 L239 601 L137 601 L137 702 L239 702 Z M398 702 L398 601 L296 601 L296 702 L398 702 Z M270 525 Q387 525 448 444 Q501 373 501 254 Q501 120 432 50 Q371 -11 269 -11 Q151 -11 89 68 Q35 137 35 254 Q35 390 106 462 Q167 525 270 525 Z M270 449 Q195 449 155 390 Q120 338 120 254 Q120 159 165 109 Q204 65 269 65 Q343 65 382 122 Q416 171 416 254 Q416 351 372 403 Q334 449 270 449 Z "/>
<glyph glyph-name="otilde" unicode="õ" horiz-adv-x="546" d="M270 525 Q387 525 448 444 Q501 373 501 254 Q501 120 432 50 Q371 -11 269 -11 Q151 -11 89 68 Q35 137 35 254 Q35 390 106 462 Q167 525 270 525 Z M270 449 Q195 449 155 390 Q120 338 120 254 Q120 159 165 109 Q204 65 269 65 Q343 65 382 122 Q416 171 416 254 Q416 351 372 403 Q334 449 270 449 Z M368 704 L425 704 Q410 602 339 602 Q318 602 294 611 L253 627 Q220 640 206 640 Q184 640 173 603 L116 603 Q125 655 149 682 Q170 705 200 705 Q222 705 246 695 L287 679 Q314 668 333 668 Q356 668 368 704 Z "/>
<glyph glyph-name="uacute" unicode="ú" horiz-adv-x="546" d="M318 727 L429 727 L283 581 L224 581 L318 727 Z M473 0 L399 0 L399 81 Q364 32 324.5 10.5 Q285 -11 228 -11 Q147 -11 103 31 Q64 68 64 127 L64 514 L145 514 L145 160 Q145 111 178 84 Q206 61 251 61 Q320 61 358 114 Q392 160 392 233 L392 514 L473 514 L473 0 Z "/>
<glyph glyph-name="ugrave" unicode="ù" horiz-adv-x="546" d="M238 727 L333 581 L274 581 L128 727 L238 727 Z M473 0 L399 0 L399 81 Q364 32 324.5 10.5 Q285 -11 228 -11 Q147 -11 103 31 Q64 68 64 127 L64 514 L145 514 L145 160 Q145 111 178 84 Q206 61 251 61 Q320 61 358 114 Q392 160 392 233 L392 514 L473 514 L473 0 Z "/>
<glyph glyph-name="ucircumflex" unicode="û" horiz-adv-x="546" d="M223 728 L316 728 L411 580 L348 580 L269 674 L192 580 L129 580 L223 728 Z M473 0 L399 0 L399 81 Q364 32 324.5 10.5 Q285 -11 228 -11 Q147 -11 103 31 Q64 68 64 127 L64 514 L145 514 L145 160 Q145 111 178 84 Q206 61 251 61 Q320 61 358 114 Q392 160 392 233 L392 514 L473 514 L473 0 Z "/>
<glyph glyph-name="udieresis" unicode="ü" horiz-adv-x="546" d="M241 702 L241 601 L139 601 L139 702 L241 702 Z M400 702 L400 601 L298 601 L298 702 L400 702 Z M473 0 L399 0 L399 81 Q364 32 324.5 10.5 Q285 -11 228 -11 Q147 -11 103 31 Q64 68 64 127 L64 514 L145 514 L145 160 Q145 111 178 84 Q206 61 251 61 Q320 61 358 114 Q392 160 392 233 L392 514 L473 514 L473 0 Z "/>
<glyph glyph-name="degree" unicode="°" horiz-adv-x="373" d="M41 537 Q41 597 84 640 Q126 683 186 683 Q246 683 288 640 Q331 597 331 537 Q331 478 288 435 Q246 393 186 393 Q125 393 84 435 Q41 478 41 537 Z M98 537 Q98 498 124 470 Q149 442 186 442 Q222 442 248 470 Q274 498 274 537 Q274 577 248 606 Q221 635 186 635 Q150 635 124 606 Q98 577 98 537 Z "/>
<glyph glyph-name="cent" unicode="¢" horiz-adv-x="550" d="M328 683 L328 608 Q362 606 396 597 Q425 590 445 580 L420 509 Q393 520 370 526 Q341 534 318 534 Q254 534 221 498 Q179 453 179 343 Q179 235 221 191 Q254 157 314 157 Q347 157 384 165 Q427 174 458 186 L458 149 L423 106 Q387 88 328 83 L328 -9 L265 -9 L265 86 Q182 98 139 157 Q92 220 92 342 Q92 466 139 532 Q181 592 265 604 L265 683 L328 683 Z "/>
<glyph glyph-name="sterling" unicode="£" horiz-adv-x="645" d="M367 682 Q436 682 496 650 L496 579 Q432 612 371 612 Q323 612 297 586 Q268 557 268 499 L268 363 L441 363 L441 300 L268 300 L268 203 Q268 136 244 93 Q297 100 346 100 Q461 100 553 65 L553 36 L523 0 Q420 30 323 30 Q225 30 92 0 L92 70 Q134 80 158 111 Q184 144 184 202 L184 300 L93 300 L93 363 L184 363 L184 512 Q184 590 235 637 Q285 682 367 682 Z "/>
<glyph glyph-name="section" unicode="§" horiz-adv-x="546" d="M456 514 L374 514 Q373 553 370 569.5 Q367 586 358 600 Q331 640 279 640 Q238 640 213 613 Q191 590 191 556 Q191 535 203.5 518 Q216 501 247 481 L390 389 Q449 351 473 314.5 Q497 278 497 225 Q497 112 391 72 Q420 38 431 13 Q442 -12 442 -44 Q442 -120 383 -168 Q332 -209 259 -209 Q192 -209 145 -175 Q104 -146 87 -98 Q76 -67 76 -13 L160 -13 Q160 -64 177 -90 Q206 -133 260 -133 Q305 -133 331 -106 Q354 -83 354 -48 Q354 0 300 38 L133 153 Q85 186 64 222 Q43 258 43 307 Q43 355 67.5 389.5 Q92 424 146 453 Q103 502 103 552 Q103 626 162 674 Q213 716 284 716 Q366 716 414 662 Q456 614 456 541 L456 514 Z M348 105 Q419 143 419 205 Q419 265 348 314 L190 421 Q152 396 136.5 374 Q121 352 121 322 Q121 292 134 272.5 Q147 253 185 225 L348 105 Z "/>
<glyph glyph-name="bullet" unicode="•" horiz-adv-x="366" d="M183 271 Q226 271 256 238 Q281 210 281 173 Q281 129 248 99 Q220 74 183 74 Q139 74 109 107 Q84 135 84 173 Q84 216 117 246 Q145 271 183 271 Z "/>
<glyph glyph-name="paragraph" unicode="¶" horiz-adv-x="527" d="M513 716 L513 653 L456 653 L456 -174 L393 -174 L393 653 L313 653 L313 -174 L250 -174 L250 254 Q175 258 127 298 Q89 329 68 377.5 Q47 426 47 480 Q47 587 118 656 Q180 716 266 716 L513 716 Z "/>
<glyph glyph-name="germandbls" unicode="ß" horiz-adv-x="600" d="M297 346 L297 427 Q369 428 408 460 Q441 488 441 534 Q441 583 404 613 Q372 639 325 639 Q267 639 234 605 Q205 576 205 529 L205 0 L124 0 L124 529 Q124 617 175 662 Q238 716 331 716 Q424 716 479 660 Q526 611 526 537 Q526 437 418 397 Q494 371 527 324 Q556 283 556 220 Q556 106 488 44 Q429 -11 334 -11 Q313 -11 293 -7 L293 70 L309 70 Q357 70 385 80 Q413 90 435 115 Q471 156 471 215 Q471 282 428 317 Q393 346 321 346 L297 346 Z "/>
<glyph glyph-name="registered" unicode="®" horiz-adv-x="784" d="M392 683 Q485 683 567 636 Q645 590 691 512 Q738 429 738 337 Q738 244 691 162 Q646 84 567 38 Q486 -9 392 -9 Q298 -9 218 38 Q138 84 93 162 Q46 243 46 337 Q46 430 93 512 Q138 590 218 636 Q299 683 392 683 Z M392 633 Q270 633 183 546 Q96 459 96 337 Q96 214 183 128 Q269 41 392 41 Q514 41 601 128 Q688 215 688 337 Q688 459 601 546 Q514 633 392 633 Z M242 539 L394 539 Q467 539 505 494 Q537 457 537 401 Q537 331 472 299 L547 158 L515 133 L479 133 L403 281 L316 281 L316 133 L242 133 L242 539 Z M388 473 L316 473 L316 347 L393 347 Q426 347 445 365 Q463 383 463 412 Q463 435 453 450 Q436 473 388 473 Z "/>
<glyph glyph-name="copyright" unicode="©" horiz-adv-x="784" d="M392 683 Q485 683 567 636 Q645 590 691 512 Q738 429 738 337 Q738 244 691 162 Q646 84 567 38 Q486 -9 392 -9 Q298 -9 218 38 Q138 84 93 162 Q46 243 46 337 Q46 430 93 512 Q138 590 218 636 Q299 683 392 683 Z M392 633 Q270 633 183 546 Q96 459 96 337 Q96 214 183 128 Q269 41 392 41 Q514 41 601 128 Q688 215 688 337 Q688 459 601 546 Q514 633 392 633 Z M410 547 Q469 547 527 518 L498 460 Q450 485 410 485 Q354 485 324 446 Q294 407 294 337 Q294 264 322 227 Q350 188 410 188 Q430 188 459 194 Q482 199 509 209 L509 180 L471 133 Q451 125 407 125 Q315 125 267 184 Q220 239 220 337 Q220 432 269 488 Q321 547 410 547 Z "/>
<glyph glyph-name="trademark" unicode="™" horiz-adv-x="669" d="M254 673 L254 623 L162 623 L162 366 L131 341 L104 341 L104 623 L14 623 L14 673 L254 673 Z M623 673 L623 366 L592 341 L565 341 L565 594 L564 594 L474 341 L428 341 L343 594 L342 594 L342 341 L285 341 L285 673 L371 673 L454 419 L542 673 L623 673 Z "/>
<glyph glyph-name="acute" unicode="´" horiz-adv-x="491" d="M267 727 L377 727 L231 581 L172 581 L267 727 Z "/>
<glyph glyph-name="dieresis" unicode="¨" horiz-adv-x="491" d="M213 702 L213 601 L111 601 L111 702 L213 702 Z M372 702 L372 601 L270 601 L270 702 L372 702 Z "/>
<glyph glyph-name="AE" unicode="Æ" horiz-adv-x="982" d="M460 210 L195 210 L112 0 L11 0 L305 716 L915 716 L915 635 L551 635 L551 407 L896 407 L896 326 L551 326 L551 81 L933 81 L933 0 L460 0 L460 210 Z M460 290 L460 635 L362 635 L226 290 L460 290 Z "/>
<glyph glyph-name="Oslash" unicode="Ø" horiz-adv-x="764" d="M645 613 Q729 510 729 357 Q729 181 621 78 Q527 -11 383 -11 Q241 -11 150 73 L72 -12 L34 23 L115 112 Q38 211 38 359 Q38 536 146 638 Q239 727 384 727 Q516 727 608 650 L688 737 L727 702 L645 613 Z M585 547 L209 137 Q278 70 383 70 Q505 70 576 159 Q637 237 637 358 Q637 468 585 547 Z M176 178 L550 586 Q483 646 383 646 Q260 646 190 557 Q129 479 129 358 Q129 256 176 178 Z "/>
<glyph glyph-name="plusminus" unicode="±" horiz-adv-x="573" d="M524 408 L524 339 L321 339 L321 137 L252 137 L252 339 L49 339 L49 408 L252 408 L252 612 L321 612 L321 408 L524 408 Z M524 58 L524 -11 L49 -11 L49 58 L524 58 Z "/>
<glyph glyph-name="lessequal" unicode="≤" horiz-adv-x="509" d="M466 573 L466 498 L132 332 L466 186 L466 110 L41 305 L41 352 L466 573 Z M467 71 L467 0 L42 0 L42 71 L467 71 Z "/>
<glyph glyph-name="greaterequal" unicode="≥" horiz-adv-x="509" d="M41 573 L466 352 L466 305 L41 110 L41 186 L375 332 L41 498 L41 573 Z M467 71 L467 0 L42 0 L42 71 L467 71 Z "/>
<glyph glyph-name="yen" unicode="¥" horiz-adv-x="521" d="M493 673 L330 319 L440 319 L440 256 L301 256 L301 184 L440 184 L440 121 L301 121 L301 34 L259 0 L219 0 L219 121 L81 121 L81 184 L219 184 L219 256 L81 256 L81 319 L188 319 L28 673 L116 673 L259 332 L405 673 L493 673 Z "/>
<glyph glyph-name="mu" unicode="µ" horiz-adv-x="570" d="M469 514 L550 514 L441 0 L367 0 L385 82 Q339 33 295 10.5 Q251 -12 199 -12 Q148 -12 117 13 L68 -214 L-13 -214 L142 514 L223 514 L148 161 Q145 146 145 132 Q145 100 169 80 Q193 60 232 60 Q300 60 350 114 Q394 160 409 234 L469 514 Z "/>
<glyph glyph-name="ordfeminine" unicode="ª" horiz-adv-x="363" d="M314 348 L314 298 L42 298 L42 348 L314 348 Z M327 439 L327 397 Q311 390 295 390 Q270 390 258 399.5 Q246 409 240 433 Q194 390 138 390 Q88 390 60 419 Q36 444 36 485 Q36 546 92 570 Q121 582 190 588 Q218 590 228 596.5 Q238 603 238 620 L238 633 Q238 676 172 676 Q139 676 125 664.5 Q111 653 105 621 L47 621 Q51 727 174 727 Q294 727 294 634 L294 459 Q294 436 317 436 Q321 436 327 439 Z M238 556 Q222 550 190 545 L163 541 Q126 535 109.5 523 Q93 511 93 488 Q93 441 149 441 Q187 441 215 463 Q238 482 238 506 L238 556 Z "/>
<glyph glyph-name="ordmasculine" unicode="º" horiz-adv-x="358" d="M308 348 L308 298 L50 298 L50 348 L308 348 Z M179 727 Q250 727 286 677 Q318 634 318 559 Q318 472 277 428 Q241 390 179 390 Q107 390 71 440 Q39 483 39 559 Q39 645 80 689 Q116 727 179 727 Z M178 676 Q137 676 115 641 Q96 610 96 559 Q96 500 121 468 Q143 441 179 441 Q220 441 242 477 Q261 507 261 559 Q261 617 236 649 Q214 676 178 676 Z "/>
<glyph glyph-name="ae" unicode="æ" horiz-adv-x="881" d="M417 87 Q330 -11 211 -11 Q128 -11 81 35 Q41 75 41 138 Q41 209 92 248 Q136 281 239 295 L297 302 Q345 308 363.5 320.5 Q382 333 382 359 L382 373 Q382 449 267 449 Q205 449 176 425 Q151 403 147 360 L64 360 Q67 428 98 464 Q151 525 269 525 Q397 525 438 451 Q504 525 610 525 Q687 525 745 486 Q795 451 818 394 Q839 342 839 233 L460 233 Q461 167 487 129 Q530 65 611 65 Q711 65 746 160 L828 160 Q812 74 747 28 Q690 -11 608 -11 Q479 -11 417 87 Z M382 257 Q351 244 295 235 L250 229 Q182 219 152 195 Q126 174 126 139 Q126 101 152.5 81 Q179 61 228 61 Q300 61 350 107 Q382 137 382 173 L382 257 Z M751 300 Q750 372 706 413 Q668 449 609 449 Q542 449 502 403 Q467 364 462 300 L751 300 Z "/>
<glyph glyph-name="oslash" unicode="ø" horiz-adv-x="600" d="M431 464 L486 527 L518 500 L457 430 Q501 362 501 254 Q501 120 432 50 Q372 -11 270 -11 Q176 -11 114 43 L52 -26 L21 1 L86 74 Q35 145 35 254 Q35 390 106 462 Q167 525 270 525 Q369 525 431 464 Z M144 140 L375 401 Q334 449 270 449 Q196 449 155 390 Q120 338 120 254 Q120 185 144 140 Z M397 363 L169 105 Q210 65 270 65 Q343 65 382 122 Q416 171 416 254 Q416 318 397 363 Z "/>
<glyph glyph-name="questiondown" unicode="¿" horiz-adv-x="600" d="M270 319 L358 319 L358 266 Q358 229 343.5 200 Q329 171 294 140 L255 106 Q215 70 198 40 Q181 10 181 -24 Q181 -78 220 -109 Q255 -136 308 -136 Q388 -136 418 -79 Q435 -47 435 17 L518 17 Q517 -33 510 -64.5 Q503 -96 486 -125 Q434 -213 303 -213 Q200 -213 143 -155 Q93 -105 93 -24 Q93 25 114.5 63 Q136 101 192 152 Q243 198 256.5 219 Q270 240 270 273 L270 319 Z M270 412 L270 514 L358 514 L358 412 L270 412 Z "/>
<glyph glyph-name="exclamdown" unicode="¡" horiz-adv-x="327" d="M119 -201 L119 130 L141 349 L179 349 L200 130 L200 -201 L119 -201 Z M119 412 L119 514 L201 514 L201 412 L119 412 Z "/>
<glyph glyph-name="logicalnot" unicode="¬" horiz-adv-x="573" d="M39 368 L534 368 L534 85 L465 85 L465 299 L39 299 L39 368 Z "/>
<glyph glyph-name="florin" unicode="ƒ" horiz-adv-x="255" d="M149 447 L149 -108 Q149 -215 8 -215 Q-7 -215 -18 -212 L-18 -143 Q-10 -143 -2 -143 L2 -143 Q40 -143 54 -128.5 Q68 -114 68 -75 L68 447 L0 447 L0 514 L68 514 L68 602 Q68 661 104 692 Q136 719 189 719 Q211 719 235 714 L235 646 Q217 647 204 647 Q149 647 149 595 L149 514 L235 514 L235 447 L149 447 Z "/>
<glyph glyph-name="guillemotleft" unicode="«" horiz-adv-x="426" d="M202 475 L229 452 L109 267 L230 81 L202 58 L176 58 L37 262 L37 270 L176 475 L202 475 Z M361 475 L389 452 L268 267 L389 81 L362 58 L335 58 L196 262 L196 270 L335 475 L361 475 Z "/>
<glyph glyph-name="guillemotright" unicode="»" horiz-adv-x="439" d="M65 475 L91 475 L230 270 L230 262 L91 58 L65 58 L37 81 L158 267 L37 452 L65 475 Z M238 475 L264 475 L402 270 L402 262 L264 58 L237 58 L210 81 L331 267 L210 452 L238 475 Z "/>
<glyph glyph-name="ellipsis" unicode="…" horiz-adv-x="499" d="M100 93 Q120 93 134.5 78.5 Q149 64 149 44 Q149 23 135 9 Q121 -5 100 -5 Q80 -5 65.5 9 Q51 23 51 44 Q51 64 65.5 78.5 Q80 93 100 93 Z M248 93 Q268 93 282.5 78.5 Q297 64 297 44 Q297 23 283 9 Q269 -5 248 -5 Q228 -5 213.5 9 Q199 23 199 44 Q199 64 213.5 78.5 Q228 93 248 93 Z M399 93 Q419 93 433.5 78.5 Q448 64 448 44 Q448 23 434 9 Q420 -5 399 -5 Q379 -5 364.5 9 Q350 23 350 44 Q350 64 364.5 78.5 Q379 93 399 93 Z "/>
<glyph glyph-name="Agrave" unicode="À" horiz-adv-x="655" d="M466 215 L190 215 L114 0 L17 0 L272 716 L390 716 L641 0 L540 0 L466 215 Z M440 292 L330 618 L213 292 L440 292 Z M298 922 L393 777 L334 777 L187 922 L298 922 Z "/>
<glyph glyph-name="Atilde" unicode="Ã" horiz-adv-x="655" d="M466 215 L190 215 L114 0 L17 0 L272 716 L390 716 L641 0 L540 0 L466 215 Z M440 292 L330 618 L213 292 L440 292 Z M427 900 L483 900 Q469 798 396 798 Q375 798 332 815 Q280 835 264 835 Q242 835 232 799 L175 799 Q184 850 208 877 Q229 900 259 900 Q282 900 305 891 L346 875 Q373 864 391 864 Q415 864 427 900 Z "/>
<glyph glyph-name="Otilde" unicode="Õ" horiz-adv-x="764" d="M483 900 L540 900 Q526 798 453 798 Q438 798 426 801.5 Q414 805 369 822 Q336 835 321 835 Q298 835 288 799 L232 799 Q240 851 265 877 Q286 900 315 900 Q338 900 361 891 L402 875 Q429 864 448 864 Q472 864 483 900 Z M382 727 Q549 727 645 612 Q728 512 728 358 Q728 181 620 78 Q527 -11 383 -11 Q216 -11 120 104 Q37 204 37 358 Q37 535 145 638 Q238 727 382 727 Z M382 646 Q259 646 189 556 Q128 479 128 358 Q128 219 207 139 Q275 70 382 70 Q505 70 575 159 Q636 237 636 358 Q636 497 557 577 Q488 646 382 646 Z "/>
<glyph glyph-name="endash" unicode="–" horiz-adv-x="470" d="M433 262 L433 191 L37 191 L37 262 L433 262 Z "/>
<glyph glyph-name="emdash" unicode="—" horiz-adv-x="941" d="M904 262 L904 191 L37 191 L37 262 L904 262 Z "/>
<glyph glyph-name="quotedblleft" unicode="“" horiz-adv-x="360" d="M136 716 L160 697 Q138 670 122 636 Q112 615 107 593 Q121 594 131 588 Q140 584 146 577 Q157 563 157 545 Q157 533 151 519 Q137 494 108 494 Q86 494 72 509 Q53 527 51 561 Q51 565 51 567 Q51 601 70 643 Q87 681 116 716 L136 716 Z M286 716 L310 697 Q288 670 273 636 Q262 615 257 593 Q268 593 275 591 Q284 588 291 582 Q306 569 307 546 Q307 532 301 519 Q287 494 258 494 Q236 494 221 509 Q203 527 201 561 Q201 565 201 567 Q201 601 220 643 Q236 681 267 716 L286 716 Z "/>
<glyph glyph-name="quotedblright" unicode="”" horiz-adv-x="360" d="M103 716 Q125 716 140 701 Q158 683 160 649 Q160 645 160 643 Q160 609 141 567 Q125 529 94 494 L75 494 L51 513 Q72 540 88 574 Q99 595 104 617 Q83 616 70 628 Q55 641 54 664 Q54 678 60 691 Q74 716 103 716 Z M253 716 Q275 716 290 701 Q308 683 310 649 Q310 645 310 643 Q310 609 291 567 Q274 529 244 494 L225 494 L201 513 Q222 540 238 574 Q249 595 254 617 Q230 615 215 633 Q204 647 204 665 Q204 677 210 691 Q224 716 253 716 Z "/>
<glyph glyph-name="quoteleft" unicode="‘" horiz-adv-x="210" d="M136 716 L160 697 Q138 670 122 636 Q112 615 107 593 Q131 595 146 577 Q157 563 157 545 Q157 533 151 519 Q137 494 108 494 Q86 494 72 509 Q53 527 51 561 Q51 565 51 567 Q51 601 70 643 Q87 681 116 716 L136 716 Z "/>
<glyph glyph-name="quoteright" unicode="’" horiz-adv-x="210" d="M103 716 Q125 716 140 701 Q158 683 160 649 Q160 645 160 643 Q160 609 141 567 Q125 529 94 494 L75 494 L51 513 Q72 540 88 574 Q99 595 104 617 Q83 616 70 628 Q55 641 54 664 Q54 678 60 691 Q74 716 103 716 Z "/>
<glyph glyph-name="divide" unicode="÷" horiz-adv-x="508" d="M254 433 Q274 433 288.5 418.5 Q303 404 303 384 Q303 363 288.5 348.5 Q274 334 254 334 Q233 334 218.5 348.5 Q204 363 204 384 Q204 404 218.5 418.5 Q233 433 254 433 Z M466 260 L466 191 L41 191 L41 260 L466 260 Z M254 118 Q274 118 288.5 103.5 Q303 89 303 69 Q303 49 288.5 34.5 Q274 20 254 20 Q233 20 218.5 34.5 Q204 49 204 69 Q204 89 218.5 103.5 Q233 118 254 118 Z "/>
<glyph glyph-name="ydieresis" unicode="ÿ" horiz-adv-x="491" d="M381 514 L469 514 L240 -108 Q201 -214 107 -214 Q77 -214 53 -202 L53 -128 Q77 -133 95 -133 Q122 -133 137 -122 Q152 -111 162 -84 L193 -2 L20 514 L108 514 L238 113 L381 514 Z M213 702 L213 601 L111 601 L111 702 L213 702 Z M372 702 L372 601 L270 601 L270 702 L372 702 Z "/>
<glyph glyph-name="fraction" unicode="⁄" horiz-adv-x="524" d="M492 673 L95 0 L23 0 L419 673 L492 673 Z "/>
<glyph glyph-name="currency" unicode="¤" horiz-adv-x="516" d="M84 332 Q84 384 114 430 L55 490 L100 535 L159 476 Q205 507 258 507 Q311 507 356 476 L415 535 L461 491 L401 431 Q432 385 432 332 Q432 276 401 233 L459 175 L415 131 L356 189 Q310 159 258 159 Q202 159 159 190 L100 132 L56 176 L114 234 Q84 279 84 332 Z M148 333 Q148 286 180 255 Q212 222 258 222 Q305 222 337 255 Q370 287 370 333 Q370 379 337 412 Q305 445 258 445 Q212 445 180 412 Q148 380 148 333 Z "/>
<glyph glyph-name="guilsinglleft" unicode="‹" horiz-adv-x="267" d="M202 475 L229 452 L109 267 L230 81 L202 58 L176 58 L37 262 L37 270 L176 475 L202 475 Z "/>
<glyph glyph-name="guilsinglright" unicode="›" horiz-adv-x="267" d="M65 475 L91 475 L230 270 L230 262 L91 58 L65 58 L37 81 L158 267 L37 452 L65 475 Z "/>
<glyph glyph-name="periodcentered" unicode="·" horiz-adv-x="273" d="M207 419 L207 296 L85 296 L85 419 L207 419 Z "/>
<glyph glyph-name="quotesinglbase" unicode="‚" horiz-adv-x="210" d="M103 116 Q125 116 140 101 Q158 83 160 49 Q160 45 160 43 Q160 9 141 -33 Q125 -70 94 -106 L75 -106 L51 -87 Q72 -60 88 -26 Q99 -5 104 17 Q83 16 70 28 Q55 41 54 64 Q54 78 60 91 Q74 116 103 116 Z "/>
<glyph glyph-name="quotedblbase" unicode="„" horiz-adv-x="360" d="M103 116 Q125 116 140 101 Q158 83 160 49 Q160 45 160 43 Q160 9 141 -33 Q125 -70 94 -106 L75 -106 L51 -87 Q72 -60 88 -26 Q99 -5 104 17 Q83 16 70 28 Q55 41 54 64 Q54 78 60 91 Q74 116 103 116 Z M253 116 Q275 116 290 101 Q308 83 310 49 Q310 45 310 43 Q310 9 291 -33 Q274 -71 244 -106 L225 -106 L201 -87 Q222 -60 238 -26 Q249 -5 254 17 Q230 15 215 33 Q204 47 204 65 Q204 77 210 91 Q224 116 253 116 Z "/>
<glyph glyph-name="Acircumflex" unicode="Â" horiz-adv-x="655" d="M466 215 L190 215 L114 0 L17 0 L272 716 L390 716 L641 0 L540 0 L466 215 Z M440 292 L330 618 L213 292 L440 292 Z M283 923 L375 923 L470 776 L408 776 L329 870 L251 776 L188 776 L283 923 Z "/>
<glyph glyph-name="Ecircumflex" unicode="Ê" horiz-adv-x="655" d="M179 326 L179 81 L601 81 L601 0 L88 0 L88 716 L584 716 L584 635 L179 635 L179 407 L569 407 L569 326 L179 326 Z M292 923 L384 923 L479 776 L417 776 L338 870 L260 776 L197 776 L292 923 Z "/>
<glyph glyph-name="Aacute" unicode="Á" horiz-adv-x="655" d="M466 215 L190 215 L114 0 L17 0 L272 716 L390 716 L641 0 L540 0 L466 215 Z M440 292 L330 618 L213 292 L440 292 Z M396 922 L507 922 L360 777 L301 777 L396 922 Z "/>
<glyph glyph-name="Edieresis" unicode="Ë" horiz-adv-x="655" d="M179 326 L179 81 L601 81 L601 0 L88 0 L88 716 L584 716 L584 635 L179 635 L179 407 L569 407 L569 326 L179 326 Z M309 897 L309 796 L207 796 L207 897 L309 897 Z M468 897 L468 796 L366 796 L366 897 L468 897 Z "/>
<glyph glyph-name="Egrave" unicode="È" horiz-adv-x="655" d="M179 326 L179 81 L601 81 L601 0 L88 0 L88 716 L584 716 L584 635 L179 635 L179 407 L569 407 L569 326 L179 326 Z M313 922 L408 777 L349 777 L203 922 L313 922 Z "/>
<glyph glyph-name="Iacute" unicode="Í" horiz-adv-x="273" d="M189 716 L189 0 L98 0 L98 716 L189 716 Z M196 922 L307 922 L161 777 L102 777 L196 922 Z "/>
<glyph glyph-name="Icircumflex" unicode="Î" horiz-adv-x="273" d="M189 716 L189 0 L98 0 L98 716 L189 716 Z M93 923 L186 923 L281 776 L219 776 L140 870 L62 776 L-1 776 L93 923 Z "/>
<glyph glyph-name="Idieresis" unicode="Ï" horiz-adv-x="273" d="M189 716 L189 0 L98 0 L98 716 L189 716 Z M111 891 L111 790 L9 790 L9 891 L111 891 Z M270 891 L270 790 L168 790 L168 891 L270 891 Z "/>
<glyph glyph-name="Igrave" unicode="Ì" horiz-adv-x="273" d="M189 716 L189 0 L98 0 L98 716 L189 716 Z M112 922 L206 777 L147 777 L1 922 L112 922 Z "/>
<glyph glyph-name="Oacute" unicode="Ó" horiz-adv-x="764" d="M411 922 L521 922 L375 777 L316 777 L411 922 Z M382 727 Q549 727 645 612 Q728 512 728 358 Q728 181 620 78 Q527 -11 383 -11 Q216 -11 120 104 Q37 204 37 358 Q37 535 145 638 Q238 727 382 727 Z M382 646 Q259 646 189 556 Q128 479 128 358 Q128 219 207 139 Q275 70 382 70 Q505 70 575 159 Q636 237 636 358 Q636 497 557 577 Q488 646 382 646 Z "/>
<glyph glyph-name="Ocircumflex" unicode="Ô" horiz-adv-x="764" d="M336 923 L429 923 L524 776 L461 776 L382 870 L305 776 L242 776 L336 923 Z M382 727 Q549 727 645 612 Q728 512 728 358 Q728 181 620 78 Q527 -11 383 -11 Q216 -11 120 104 Q37 204 37 358 Q37 535 145 638 Q238 727 382 727 Z M382 646 Q259 646 189 556 Q128 479 128 358 Q128 219 207 139 Q275 70 382 70 Q505 70 575 159 Q636 237 636 358 Q636 497 557 577 Q488 646 382 646 Z "/>
<glyph glyph-name="Ograve" unicode="Ò" horiz-adv-x="764" d="M351 922 L446 777 L387 777 L241 922 L351 922 Z M382 727 Q549 727 645 612 Q728 512 728 358 Q728 181 620 78 Q527 -11 383 -11 Q216 -11 120 104 Q37 204 37 358 Q37 535 145 638 Q238 727 382 727 Z M382 646 Q259 646 189 556 Q128 479 128 358 Q128 219 207 139 Q275 70 382 70 Q505 70 575 159 Q636 237 636 358 Q636 497 557 577 Q488 646 382 646 Z "/>
<glyph glyph-name="Uacute" unicode="Ú" horiz-adv-x="709" d="M379 922 L490 922 L344 777 L285 777 L379 922 Z M542 716 L633 716 L633 225 Q633 109 548 45 Q475 -11 357 -11 Q221 -11 147 60 Q83 123 83 225 L83 716 L174 716 L174 225 Q174 146 228 105 Q276 70 357 70 Q449 70 499 117 Q542 158 542 225 L542 716 Z "/>
<glyph glyph-name="Ucircumflex" unicode="Û" horiz-adv-x="709" d="M311 923 L404 923 L499 776 L437 776 L358 870 L280 776 L217 776 L311 923 Z M542 716 L633 716 L633 225 Q633 109 548 45 Q475 -11 357 -11 Q221 -11 147 60 Q83 123 83 225 L83 716 L174 716 L174 225 Q174 146 228 105 Q276 70 357 70 Q449 70 499 117 Q542 158 542 225 L542 716 Z "/>
<glyph glyph-name="Ugrave" unicode="Ù" horiz-adv-x="709" d="M327 922 L421 777 L362 777 L216 922 L327 922 Z M542 716 L633 716 L633 225 Q633 109 548 45 Q475 -11 357 -11 Q221 -11 147 60 Q83 123 83 225 L83 716 L174 716 L174 225 Q174 146 228 105 Q276 70 357 70 Q449 70 499 117 Q542 158 542 225 L542 716 Z "/>
<glyph glyph-name="overscore" unicode="¯" horiz-adv-x="479" d="M479 824 L479 761 L0 761 L0 824 L479 824 Z "/>
<glyph glyph-name="cedilla" unicode="¸" horiz-adv-x="491" d="M243 0 L281 0 L259 -55 Q274 -53 286 -53 Q364 -53 364 -118 Q364 -164 327 -189 Q295 -210 243 -210 Q214 -210 190.5 -204 Q167 -198 120 -177 L141 -137 Q147 -140 149 -141 Q183 -159 200.5 -164.5 Q218 -170 237 -170 Q260 -170 275 -157.5 Q290 -145 290 -126 Q290 -89 245 -89 Q230 -89 214 -96 L203 -90 L243 0 Z "/>
<glyph glyph-name="brokenbar" unicode="¦" horiz-adv-x="200" d="M69 412 L69 688 L131 688 L131 412 L69 412 Z M131 304 L131 28 L69 28 L69 304 L131 304 Z "/>
<glyph glyph-name="Eth" unicode="Ð" horiz-adv-x="709" d="M88 332 L20 332 L20 398 L88 398 L88 716 L364 716 Q508 716 586 608 Q654 513 654 357 Q654 179 566 83 Q490 0 364 0 L88 0 L88 332 Z M179 332 L179 81 L348 81 Q453 81 509 153 Q563 223 563 357 Q563 493 509 563 Q453 635 348 635 L179 635 L179 398 L346 398 L346 332 L179 332 Z "/>
<glyph glyph-name="eth" unicode="ð" horiz-adv-x="546" d="M310 515 Q260 564 214 602 L119 558 L84 596 L169 635 Q132 661 87 686 L130 729 Q186 702 240 668 L334 712 L373 675 L287 635 Q380 563 430 487 Q468 430 484.5 376 Q501 322 501 255 Q501 120 432 50 Q372 -11 269 -11 Q151 -11 89 68 Q35 137 35 254 Q35 420 139 489 Q192 524 257 524 Q282 524 310 515 Z M270 449 Q195 449 155 390 Q120 338 120 254 Q120 159 165 109 Q204 65 269 65 Q343 65 382 122 Q416 171 416 254 Q416 351 372 403 Q334 449 270 449 Z "/>
<glyph glyph-name="Yacute" unicode="Ý" horiz-adv-x="654" d="M379 281 L379 0 L288 0 L288 281 L13 716 L125 716 L335 368 L539 716 L648 716 L379 281 Z M383 922 L493 922 L347 777 L288 777 L383 922 Z "/>
<glyph glyph-name="yacute" unicode="ý" horiz-adv-x="491" d="M381 514 L469 514 L240 -108 Q201 -214 107 -214 Q77 -214 53 -202 L53 -128 Q77 -133 95 -133 Q122 -133 137 -122 Q152 -111 162 -84 L193 -2 L20 514 L108 514 L238 113 L381 514 Z M303 727 L413 727 L267 581 L208 581 L303 727 Z "/>
<glyph glyph-name="Thorn" unicode="Þ" horiz-adv-x="654" d="M180 185 L180 0 L89 0 L89 716 L180 716 L180 598 L384 598 Q494 598 553 535 Q604 480 604 390 Q604 293 541 235 Q486 185 404 185 L180 185 Z M180 266 L371 266 Q439 266 475 304 Q506 336 506 391 Q506 455 465 488 Q430 517 371 517 L180 517 L180 266 Z "/>
<glyph glyph-name="thorn" unicode="þ" horiz-adv-x="545" d="M134 444 Q189 525 292 525 Q401 525 461 441 Q513 368 513 249 Q513 122 445 51 Q386 -11 292 -11 Q192 -11 134 60 L134 -214 L53 -214 L53 701 L134 701 L134 444 Z M279 448 Q209 448 169 388 Q135 336 135 254 Q135 162 179 111 Q218 66 279 66 Q351 66 392 124 Q428 175 428 254 Q428 347 382 401 Q341 448 279 448 Z "/>
<glyph glyph-name="minus" unicode="−" horiz-adv-x="517" d="M471 191 L46 191 L46 260 L471 260 L471 191 Z "/>
<glyph glyph-name="multiply" unicode="×" horiz-adv-x="426" d="M350 408 L394 364 L257 226 L386 97 L342 53 L213 182 L84 53 L40 97 L169 226 L32 364 L76 408 L213 271 L350 408 Z "/>
<glyph glyph-name="onesuperior" unicode="¹" horiz-adv-x="345" d="M157 570 L60 570 L60 614 L75 616 Q129 622 145.5 635 Q162 648 176 696 L218 696 L218 279 L157 279 L157 570 Z "/>
<glyph glyph-name="twosuperior" unicode="²" horiz-adv-x="345" d="M317 336 L317 279 L19 279 Q23 356 51 394 Q77 427 143 463 L200 493 Q258 524 258 571 Q258 602 234.5 623 Q211 644 175 644 Q124 644 102 606 Q92 588 89 547 L28 547 Q33 696 176 696 Q244 696 285 657 Q320 623 320 572 Q320 493 226 446 L164 414 Q132 398 117 381.5 Q102 365 92 336 L317 336 Z "/>
<glyph glyph-name="threesuperior" unicode="³" horiz-adv-x="345" d="M133 473 L133 523 Q195 523 218 535.5 Q241 548 241 581 Q241 611 221 628.5 Q201 646 167 646 Q115 646 96 612 Q87 595 86 559 L25 559 Q28 698 166 698 Q234 698 271 663 Q303 632 303 583 Q303 525 247 500 Q317 477 317 403 Q317 341 270 305 Q229 274 165 274 Q22 274 16 413 L77 413 Q79 368 100.5 347 Q122 326 167 326 Q211 326 234 349 Q255 370 255 403 Q255 450 211 467 Q196 473 133 473 Z "/>
<glyph glyph-name="onehalf" unicode="½" horiz-adv-x="723" d="M195 673 L195 290 L162 263 L129 263 L129 593 L50 535 L16 579 L136 673 L195 673 Z M574 673 L178 0 L106 0 L502 673 L574 673 Z M617 410 Q669 398 687 343 Q693 322 693 301 Q693 292 692 283 Q685 240 638 183 Q622 166 551 90 L520 58 L700 58 L700 26 L677 0 L436 0 L436 57 L481 99 Q541 154 580 199 Q610 234 619 252 Q629 273 629 295 Q629 333 605 348 Q591 358 566 357 Q530 356 494 329 L460 372 Q505 403 547 411 Q563 414 579 414 Q598 414 617 410 Z "/>
<glyph glyph-name="onequarter" unicode="¼" horiz-adv-x="674" d="M195 673 L195 290 L162 263 L129 263 L129 593 L50 535 L16 579 L136 673 L195 673 Z M556 673 L160 0 L87 0 L484 673 L556 673 Z M610 410 L610 147 L658 147 L658 89 L610 89 L610 22 L581 0 L545 0 L545 89 L355 89 L355 141 L550 410 L610 410 Z M545 326 L417 147 L545 147 L545 326 Z "/>
<glyph glyph-name="threequarters" unicode="¾" horiz-adv-x="727" d="M113 684 Q117 684 125 684 Q152 684 173 676 Q202 666 221 645 Q238 622 242 594 Q244 585 244 576 Q244 547 229 523 Q206 486 165 482 Q213 478 241 441 Q263 412 263 378 Q263 354 255 337 Q240 300 208 283 Q171 264 110 265 Q67 266 38 277 L16 304 L16 327 Q62 312 99 312 Q145 311 171 331 Q195 346 195 376 Q195 413 160 438 Q122 463 66 463 L66 503 L108 503 Q139 503 156 518 Q181 541 181 574 Q181 607 158 621 Q142 631 118 633 Q113 633 111 633 Q80 633 42 624 L42 667 Q78 682 113 684 Z M617 673 L221 0 L149 0 L545 673 L617 673 Z M662 410 L662 147 L711 147 L711 89 L662 89 L662 22 L633 0 L597 0 L597 89 L407 89 L407 141 L601 410 L662 410 Z M597 326 L469 147 L597 147 L597 326 Z "/>
<glyph glyph-name="nbspace" unicode=" " horiz-adv-x="273" d=""/>
<glyph glyph-name="uni00AD" unicode="­" horiz-adv-x="327" d="M278 306 L278 236 L45 236 L45 306 L278 306 Z "/>
<glyph glyph-name="uni02C9" unicode="ˉ" horiz-adv-x="491" d="M380 688 L380 619 L111 619 L111 688 L380 688 Z "/>
<glyph glyph-name="anoteleia" unicode="·" horiz-adv-x="273" d="M207 419 L207 296 L85 296 L85 419 L207 419 Z "/>
<glyph glyph-name="uni060C" unicode="،" horiz-adv-x="210" d="M108 -5 Q86 -5 72 10 Q53 28 51 62 Q51 66 51 68 Q51 101 70 144 Q86 182 116 217 L136 217 L160 197 Q138 171 122 137 Q112 116 107 94 Q127 95 141 83 Q156 70 157 47 Q157 33 151 20 Q137 -5 108 -5 Z "/>
<glyph glyph-name="uni0615" unicode="ؕ" d="M69 792 L69 696 Q93 725 123 743 Q151 760 180 762 Q184 762 188 762 Q220 762 245 742 Q270 722 270 675 L270 642 Q270 621 258 606 Q242 586 214 586 L0 586 L0 627 L26 627 L26 792 L69 792 Z M183 721 Q154 720 121 695 Q88 668 69 627 L206 627 Q225 627 225 646 L225 674 Q225 700 211 712 Q200 721 183 721 Z "/>
<glyph glyph-name="uni061B" unicode="؛" horiz-adv-x="210" d="M108 190 Q86 190 72 205 Q53 223 51 257 Q51 261 51 263 Q51 296 70 338 Q87 376 116 411 L136 411 L160 392 Q138 365 122 331 Q112 311 107 289 Q127 289 141 278 Q156 264 157 242 Q157 228 151 215 Q137 190 108 190 Z M108 93 Q128 93 142.5 78.5 Q157 64 157 44 Q157 24 142.5 9.5 Q128 -5 108 -5 Q87 -5 73 9 Q59 23 59 44 Q59 64 73.5 78.5 Q88 93 108 93 Z "/>
<glyph glyph-name="uni061F" unicode="؟" horiz-adv-x="405" d="M205 721 Q210 721 214 721 Q277 721 315 686 Q357 648 372 571 L313 551 Q303 603 270 629 Q251 643 221 643 Q215 643 209 642 Q174 638 149.5 619 Q125 600 124 576 Q123 537 155 501 Q164 491 211 449 Q269 398 287 366 Q310 323 310 259 Q310 239 308 215 L269 184 L235 184 Q237 215 237 238 Q237 305 215 336 Q193 369 129 423 Q87 458 71 479 Q44 515 41 558 Q40 566 40 574 Q40 638 85 678 Q136 718 205 721 Z M271 93 Q291 93 305.5 78.5 Q320 64 320 44 Q320 23 306 9 Q292 -5 271 -5 Q251 -5 236.5 9 Q222 23 222 44 Q222 64 236.5 78.5 Q251 93 271 93 Z "/>
<glyph glyph-name="uni0621" unicode="ء" horiz-adv-x="496" d="M264 457 Q273 458 285 458 Q326 458 370 448 L370 378 Q327 388 294 388 Q284 388 274 387 Q210 381 180 337 Q153 297 153 229 Q153 167 180 129 Q214 80 289 80 Q297 80 304 80 Q375 90 419 92 Q446 94 465 94 Q470 94 475 94 L475 64 L440 21 Q355 21 262 -7 Q166 -36 92 -86 L55 -27 Q89 -2 158 31 Q131 50 112 76 Q68 138 68 233 Q68 326 114 384 Q164 451 264 457 Z "/>
<glyph glyph-name="uni0622" unicode="آ" horiz-adv-x="223" d="M53 877 Q79 878 107 866 L147 848 Q167 840 183 840 Q199 840 214 849 Q223 854 234 866 L257 849 Q236 820 219 807 Q198 792 172 792 Q152 792 127 801 L86 820 Q67 829 53 829 Q29 829 -4 800 L-27 817 Q8 876 53 877 Z M154 716 L154 10 L111 -25 L69 -25 L69 716 L154 716 Z "/>
<glyph glyph-name="uni0623" unicode="أ" horiz-adv-x="223" d="M91 982 Q102 984 114 984 Q138 984 162 976 L162 935 Q144 940 127 940 Q120 940 113 939 Q95 937 85 922 Q75 908 75 887 Q75 867 87 851 Q103 832 131 832 L195 832 L195 815 L175 791 L7 791 L7 832 L51 832 Q30 859 30 897 Q30 926 42 948 Q58 974 91 982 Z M154 716 L154 10 L111 -25 L69 -25 L69 716 L154 716 Z "/>
<glyph glyph-name="uni0624" unicode="ؤ" horiz-adv-x="532" d="M277 745 Q288 747 300 747 Q324 747 348 739 L348 698 Q330 703 313 703 Q306 703 299 702 Q281 700 271 685 Q261 671 261 650 Q261 630 273 614 Q289 595 317 595 L381 595 L381 578 L361 554 L193 554 L193 595 L237 595 Q216 622 216 660 Q216 689 228 711 Q244 737 277 745 Z M285 472 Q366 472 416 431 Q477 382 477 290 L477 9 Q476 -119 394 -184 Q351 -217 292 -230 Q253 -238 212 -238 Q188 -238 166 -237 L133 -196 L133 -164 Q162 -168 196 -168 Q228 -168 249 -164 Q316 -152 349 -120 Q391 -78 392 10 Q342 -8 283 -9 Q175 -10 112 67 Q56 134 56 239 Q56 343 115 406 Q178 472 285 472 Z M285 401 Q211 401 173 348 Q141 303 141 230 Q141 157 182 112 Q220 70 281 69 Q344 68 392 87 L392 290 Q392 353 348 383 Q323 401 285 401 Z "/>
<glyph glyph-name="uni0625" unicode="إ" horiz-adv-x="196" d="M154 716 L154 10 L111 -25 L69 -25 L69 716 L154 716 Z M78 -110 Q89 -108 101 -108 Q124 -108 149 -116 L149 -157 Q131 -152 113 -152 Q106 -152 100 -153 Q82 -155 72 -170 Q62 -184 62 -205 Q62 -225 74 -241 Q90 -260 118 -260 L182 -260 L182 -277 L162 -301 L-6 -301 L-6 -260 L38 -260 Q17 -233 17 -195 Q17 -166 29 -144 Q45 -118 78 -110 Z "/>
<glyph glyph-name="uni0626" unicode="ئ" horiz-adv-x="782" d="M153 471 Q164 473 176 473 Q199 473 224 465 L224 424 Q206 429 189 429 Q182 429 175 428 Q157 426 147 411 Q137 397 137 376 Q137 356 149 340 Q165 321 193 321 L257 321 L257 304 L237 280 L69 280 L69 321 L113 321 Q92 348 92 386 Q92 415 104 437 Q120 463 153 471 Z M525 472 Q529 472 534 472 Q591 472 653 452 L653 386 Q581 403 539 402 Q483 400 451 372 Q420 346 416 291 Q416 284 416 278 Q416 235 439 210 Q453 193 476 182 Q499 171 551 155 Q619 135 649 118 Q693 94 714 54 Q736 14 736 -39 Q736 -60 732 -80 Q716 -160 645 -200 Q578 -239 473 -239 L362 -239 Q238 -239 166 -172 Q97 -108 97 9 L97 139 L140 174 L182 174 L182 10 Q182 -67 215 -108 Q248 -149 326 -163 Q351 -167 418 -167 Q485 -167 511 -163 Q571 -153 604 -134 Q647 -109 653 -61 Q655 -49 655 -37 Q655 1 639 26 Q626 47 602 59.5 Q578 72 521 88 Q465 104 437 116 Q393 135 367 168 Q334 211 334 279 Q334 288 335 296 Q338 341 355 377.5 Q372 414 398 434 Q448 470 525 472 Z "/>
<glyph glyph-name="uni0627" unicode="ا" horiz-adv-x="223" d="M154 716 L154 10 L111 -25 L69 -25 L69 716 L154 716 Z "/>
<glyph glyph-name="uni0628" unicode="ب" horiz-adv-x="957" d="M888 460 L888 94 Q888 59 866 33 Q838 0 798 0 L225 0 Q168 0 126 38 Q69 87 69 165 L69 353 L112 388 L154 388 L154 165 Q154 126 182 99 Q209 71 250 71 L765 71 Q782 71 792.5 81.5 Q803 92 803 109 L803 460 L888 460 Z M479 -104 Q499 -104 513.5 -118.5 Q528 -133 528 -154 Q528 -174 513.5 -188.5 Q499 -203 479 -203 Q458 -203 443.5 -188.5 Q429 -174 429 -154 Q429 -133 443.5 -118.5 Q458 -104 479 -104 Z "/>
<glyph glyph-name="uni0629" unicode="ة" horiz-adv-x="531" d="M306 679 Q326 679 340.5 664.5 Q355 650 355 630 Q355 610 340.5 595.5 Q326 581 306 581 Q285 581 270.5 595.5 Q256 610 256 630 Q256 650 270.5 664.5 Q285 679 306 679 Z M427 679 Q447 679 461.5 664.5 Q476 650 476 630 Q476 610 461.5 595.5 Q447 581 427 581 Q406 581 391.5 595.5 Q377 610 377 630 Q377 650 391.5 664.5 Q406 679 427 679 Z M476 487 L476 172 Q476 91 430 44 Q379 -9 276 -9 Q186 -9 131 37 Q55 99 55 224 Q55 350 136 422 Q192 471 266 476 Q275 477 284 477 Q337 477 391 452 L434 487 L476 487 Z M284 403 Q229 397 190 358 Q140 308 140 223 Q140 141 180 99 Q215 62 277 62 Q336 62 364 93 Q391 123 391 172 L391 383 Q347 405 303 405 Q293 405 284 403 Z "/>
<glyph glyph-name="uni062A" unicode="ت" horiz-adv-x="957" d="M419 486 Q439 486 453.5 471.5 Q468 457 468 437 Q468 417 453.5 402.5 Q439 388 419 388 Q399 388 384.5 402.5 Q370 417 370 437 Q370 457 384.5 471.5 Q399 486 419 486 Z M540 486 Q560 486 574.5 471.5 Q589 457 589 437 Q589 417 574.5 402.5 Q560 388 540 388 Q520 388 505.5 402.5 Q491 417 491 437 Q491 457 505.5 471.5 Q520 486 540 486 Z M888 460 L888 94 Q888 59 866 33 Q838 0 798 0 L225 0 Q168 0 126 38 Q69 87 69 165 L69 353 L112 388 L154 388 L154 165 Q154 126 182 99 Q209 71 250 71 L765 71 Q782 71 792.5 81.5 Q803 92 803 109 L803 460 L888 460 Z "/>
<glyph glyph-name="uni062B" unicode="ث" horiz-adv-x="957" d="M479 583 Q498 583 512 569 Q526 555 526 536 Q526 517 512 503 Q498 489 479 489 Q460 489 446 503 Q432 517 432 536 Q432 555 446 569 Q460 583 479 583 Z M419 486 Q439 486 453.5 471.5 Q468 457 468 437 Q468 417 453.5 402.5 Q439 388 419 388 Q398 388 383.5 402.5 Q369 417 369 437 Q369 457 383.5 471.5 Q398 486 419 486 Z M540 486 Q560 486 574.5 471.5 Q589 457 589 437 Q589 417 574.5 402.5 Q560 388 540 388 Q520 388 505.5 402.5 Q491 417 491 437 Q491 457 505.5 471.5 Q520 486 540 486 Z M888 460 L888 94 Q888 59 866 33 Q838 0 798 0 L225 0 Q168 0 126 38 Q69 87 69 165 L69 353 L112 388 L154 388 L154 165 Q154 126 182 99 Q209 71 250 71 L765 71 Q782 71 792.5 81.5 Q803 92 803 109 L803 460 L888 460 Z "/>
<glyph glyph-name="uni062C" unicode="ج" horiz-adv-x="638" d="M330 471 Q387 472 436 455 Q492 436 528 395 Q583 331 583 222 L583 94 Q583 55 556 28 Q531 0 493 0 L299 0 Q215 0 172 -48 Q141 -82 140 -142 Q141 -190 157 -221.5 Q173 -253 208 -274 Q255 -304 327 -306 Q334 -306 337 -306 Q399 -306 469 -290 L469 -318 L436 -358 Q401 -370 379 -373.5 Q357 -377 321 -378 Q231 -378 166 -343 Q56 -282 55 -143 Q57 -51 104 0 Q171 71 312 71 L460 71 Q477 71 487.5 81.5 Q498 92 498 109 L498 225 Q498 304 461 347 Q418 397 326 397 Q268 397 180 376 L180 443 Q252 471 330 471 Z M325 -104 Q345 -104 359.5 -118.5 Q374 -133 374 -154 Q374 -174 359.5 -188.5 Q345 -203 325 -203 Q304 -203 289.5 -188.5 Q275 -174 275 -154 Q275 -133 289.5 -118.5 Q304 -104 325 -104 Z "/>
<glyph glyph-name="uni062D" unicode="ح" horiz-adv-x="652" d="M344 471 Q400 472 449 455 Q506 436 541 395 Q596 331 596 222 L596 94 Q596 55 569 28 Q544 0 506 0 L299 0 Q215 0 172 -48 Q141 -82 140 -142 Q141 -190 157 -221.5 Q173 -253 208 -274 Q255 -304 326 -306 Q333 -306 337 -306 Q399 -306 468 -290 L468 -322 L433 -366 Q395 -376 329 -377 Q232 -378 166 -342 Q56 -282 55 -142 Q57 -51 104 0 Q170 71 311 71 L473 71 Q490 71 500.5 81.5 Q511 92 511 109 L511 225 Q511 302 471 347 Q425 397 340 397 Q305 397 277.5 393.5 Q250 390 180 376 L180 443 Q272 471 344 471 Z "/>
<glyph glyph-name="uni062E" unicode="خ" horiz-adv-x="652" d="M336 680 Q356 680 370.5 665.5 Q385 651 385 631 Q385 610 370.5 595.5 Q356 581 336 581 Q315 581 300.5 595.5 Q286 610 286 631 Q286 651 300.5 665.5 Q315 680 336 680 Z M344 471 Q400 472 449 455 Q506 436 541 395 Q596 331 596 221 L596 94 Q596 55 569 28 Q544 0 506 0 L299 0 Q215 0 172 -48 Q141 -82 140 -142 Q141 -190 157 -221.5 Q173 -253 208 -274 Q255 -304 326 -306 Q334 -306 337 -306 Q399 -306 468 -290 L468 -322 L433 -366 Q395 -376 329 -377 Q232 -378 166 -342 Q56 -282 55 -142 Q57 -51 104 0 Q171 71 311 71 L473 71 Q490 71 500.5 81.5 Q511 92 511 109 L511 225 Q511 302 471 347 Q425 397 339 397 Q305 397 278 393.5 Q251 390 180 376 L180 443 Q272 471 344 471 Z "/>
<glyph glyph-name="uni062F" unicode="د" horiz-adv-x="517" d="M244 471 Q335 464 393 408 Q457 346 457 247 L457 94 Q457 56 432 29 Q405 0 367 0 L39 0 L39 71 L334 71 Q351 71 361.5 81.5 Q372 92 372 109 L372 235 Q372 306 328 353 Q283 401 187 402 Q159 402 140 399 L140 466 Q176 472 217 472 Q231 472 244 471 Z "/>
<glyph glyph-name="uni0630" unicode="ذ" horiz-adv-x="517" d="M191 679 Q211 679 225.5 664.5 Q240 650 240 630 Q240 610 225.5 595.5 Q211 581 191 581 Q171 581 156.5 595.5 Q142 610 142 630 Q142 650 156.5 664.5 Q171 679 191 679 Z M244 471 Q335 464 393 408 Q457 346 457 247 L457 94 Q457 56 432 29 Q405 0 367 0 L39 0 L39 71 L334 71 Q351 71 361.5 81.5 Q372 92 372 109 L372 235 Q372 306 328 353 Q283 401 187 402 Q159 402 140 399 L140 466 Q176 472 217 472 Q231 472 244 471 Z "/>
<glyph glyph-name="uni0631" unicode="ر" horiz-adv-x="402" d="M332 460 L332 9 Q332 -102 269 -166 Q220 -216 137 -232 Q105 -238 67 -238 Q43 -238 21 -237 L-12 -196 L-12 -164 Q18 -168 51 -168 Q83 -168 104 -164 Q179 -151 213 -111 Q247 -69 247 12 L247 460 L332 460 Z "/>
<glyph glyph-name="uni0632" unicode="ز" horiz-adv-x="409" d="M290 679 Q310 679 324.5 664.5 Q339 650 339 630 Q339 610 324.5 595.5 Q310 581 290 581 Q270 581 255.5 595.5 Q241 610 241 630 Q241 650 255.5 664.5 Q270 679 290 679 Z M332 460 L332 9 Q332 -111 259 -175 Q205 -224 118 -235 Q94 -238 67 -238 Q43 -238 21 -237 L-12 -196 L-12 -164 Q18 -168 51 -168 Q83 -168 104 -164 Q177 -151 210 -114 Q247 -72 247 12 L247 460 L332 460 Z "/>
<glyph glyph-name="uni0633" unicode="س" horiz-adv-x="1376" d="M1307 460 L1307 94 Q1307 52 1277 24 Q1251 0 1217 0 L1024 0 L991 35 L989 35 Q961 0 919 0 L711 0 Q708 -110 641 -173 Q570 -239 445 -239 L335 -239 Q201 -239 130 -164 Q69 -99 69 9 L69 218 L112 253 L154 253 L154 11 Q154 -66 186 -107 Q219 -150 298 -164 Q323 -168 390 -168 Q457 -168 483 -164 Q538 -154 569 -131 Q626 -90 626 11 L626 345 L711 345 L711 71 L886 71 Q903 71 913.5 81.5 Q924 92 924 109 L924 403 L1009 403 L1009 94 Q1009 82 1006 71 L1184 71 Q1201 71 1211.5 81.5 Q1222 92 1222 109 L1222 460 L1307 460 Z "/>
<glyph glyph-name="uni0634" unicode="ش" horiz-adv-x="1376" d="M968 776 Q987 776 1001 762 Q1015 748 1015 729 Q1015 710 1001 696 Q987 682 968 682 Q949 682 935 696 Q921 710 921 729 Q921 748 935 762 Q949 776 968 776 Z M907 680 Q927 680 941.5 665.5 Q956 651 956 631 Q956 610 941.5 595.5 Q927 581 907 581 Q887 581 872.5 595.5 Q858 610 858 631 Q858 651 872.5 665.5 Q887 680 907 680 Z M1029 680 Q1049 680 1063.5 665.5 Q1078 651 1078 631 Q1078 610 1063.5 595.5 Q1049 581 1029 581 Q1009 581 994.5 595.5 Q980 610 980 631 Q980 651 994.5 665.5 Q1009 680 1029 680 Z M1307 460 L1307 94 Q1307 52 1277 24 Q1251 0 1217 0 L1024 0 L991 35 L989 35 Q961 0 919 0 L711 0 Q708 -110 641 -173 Q570 -239 445 -239 L335 -239 Q201 -239 130 -164 Q69 -99 69 9 L69 218 L112 253 L154 253 L154 11 Q154 -66 186 -107 Q219 -150 298 -164 Q323 -168 390 -168 Q457 -168 483 -164 Q538 -154 569 -131 Q626 -90 626 11 L626 345 L711 345 L711 71 L886 71 Q903 71 913.5 81.5 Q924 92 924 109 L924 403 L1009 403 L1009 94 Q1009 82 1006 71 L1184 71 Q1201 71 1211.5 81.5 Q1222 92 1222 109 L1222 460 L1307 460 Z "/>
<glyph glyph-name="uni0635" unicode="ص" horiz-adv-x="1383" d="M1092 472 Q1180 467 1241 418 Q1283 384 1305.5 334.5 Q1328 285 1328 228 L1328 94 Q1328 56 1303 29 Q1276 0 1238 0 L711 0 Q708 -113 638 -176 Q567 -239 446 -239 L335 -239 Q216 -239 145 -178 Q69 -113 69 9 L69 218 L112 253 L154 253 L154 11 Q154 -78 198 -120 Q231 -152 298 -164 Q323 -168 390 -168 Q458 -168 483 -164 Q550 -152 583 -120 Q626 -78 626 11 L625 460 L710 460 L710 240 Q783 363 881 421 Q967 472 1072 472 Q1083 472 1092 472 Z M1058 399 Q971 399 897 346 Q780 264 710 71 L1205 71 Q1222 71 1232.5 81.5 Q1243 92 1243 109 L1243 236 Q1243 301 1203 344 Q1152 399 1058 399 Z "/>
<glyph glyph-name="uni0636" unicode="ض" horiz-adv-x="1383" d="M1012 680 Q1032 680 1046.5 665.5 Q1061 651 1061 631 Q1061 610 1046.5 595.5 Q1032 581 1012 581 Q991 581 976.5 595.5 Q962 610 962 631 Q962 651 976.5 665.5 Q991 680 1012 680 Z M1092 472 Q1180 467 1241 418 Q1283 384 1305.5 334.5 Q1328 285 1328 228 L1328 94 Q1328 56 1303 29 Q1276 0 1238 0 L711 0 Q708 -113 638 -176 Q567 -239 446 -239 L335 -239 Q216 -239 145 -178 Q69 -113 69 9 L69 218 L112 253 L154 253 L154 11 Q154 -78 198 -120 Q231 -152 298 -164 Q323 -168 390 -168 Q458 -168 483 -164 Q550 -152 583 -120 Q626 -78 626 11 L625 460 L710 460 L710 240 Q783 363 881 421 Q967 472 1072 472 Q1083 472 1092 472 Z M1058 399 Q971 399 897 346 Q780 264 710 71 L1205 71 Q1222 71 1232.5 81.5 Q1243 92 1243 109 L1243 236 Q1243 301 1203 344 Q1152 399 1058 399 Z "/>
<glyph glyph-name="uni0637" unicode="ط" horiz-adv-x="979" d="M307 716 L307 241 Q370 346 450 403 Q547 472 667 472 Q677 472 688 471 Q771 467 831 422 Q875 389 899.5 338 Q924 287 924 228 L924 94 Q924 51 892 22 Q867 0 834 0 L91 0 L56 43 L56 71 L223 71 L223 716 L307 716 Z M654 399 Q560 399 481 337 Q374 255 307 71 L801 71 Q818 71 828.5 81.5 Q839 92 839 109 L839 236 Q838 320 775 365 Q727 399 654 399 Z "/>
<glyph glyph-name="uni0638" unicode="ظ" horiz-adv-x="979" d="M307 716 L307 241 Q370 346 450 403 Q547 472 667 472 Q677 472 688 471 Q771 467 831 422 Q875 389 899.5 338 Q924 287 924 228 L924 94 Q924 51 891 22 Q866 0 834 0 L91 0 L56 43 L56 71 L223 71 L223 716 L307 716 Z M608 680 Q628 680 642.5 665.5 Q657 651 657 631 Q657 610 642.5 595.5 Q628 581 608 581 Q587 581 573 595.5 Q559 610 559 631 Q559 651 573 665.5 Q587 680 608 680 Z M654 399 Q560 399 481 337 Q374 255 307 71 L801 71 Q817 71 828 81.5 Q839 92 839 109 L839 236 Q838 320 775 364 Q727 399 654 399 Z "/>
<glyph glyph-name="uni0639" unicode="ع" horiz-adv-x="556" d="M329 472 Q378 471 432 455 L432 388 Q375 402 329 402 Q245 402 205 346 Q175 306 172 252 Q172 245 172 240 Q172 196 190 157 Q209 117 240.5 94 Q272 71 310 71 L513 71 L513 43 L478 0 L298 0 Q215 0 172 -48 Q141 -82 140 -142 Q141 -190 157 -221.5 Q173 -253 208 -274 Q255 -304 326 -306 Q333 -306 337 -306 Q399 -306 468 -290 L468 -318 L429 -366 Q391 -376 329 -377 Q230 -377 166 -342 Q56 -282 55 -142 Q57 -51 104 0 Q133 31 177 49 Q134 84 113 124 Q88 173 87 241 Q86 347 153 411 Q215 472 320 472 Q326 472 329 472 Z "/>
<glyph glyph-name="uni063A" unicode="غ" horiz-adv-x="556" d="M323 680 Q343 680 357.5 665.5 Q372 651 372 631 Q372 610 357.5 595.5 Q343 581 323 581 Q302 581 287.5 595.5 Q273 610 273 631 Q273 651 287.5 665.5 Q302 680 323 680 Z M329 472 Q378 471 432 455 L432 388 Q375 402 329 402 Q245 402 205 346 Q175 306 172 252 Q172 245 172 240 Q172 196 190 157 Q209 117 240.5 94 Q272 71 310 71 L514 71 L514 43 L479 0 L298 0 Q214 0 172 -48 Q141 -82 140 -142 Q141 -190 157 -221.5 Q173 -253 208 -274 Q255 -304 326 -306 Q333 -306 337 -306 Q399 -306 468 -290 L468 -318 L429 -366 Q391 -376 329 -377 Q230 -377 166 -342 Q56 -282 55 -142 Q57 -51 104 0 Q133 31 177 49 Q134 84 113 124 Q88 173 87 241 Q86 347 153 411 Q215 472 320 472 Q323 472 329 472 Z "/>
<glyph glyph-name="uni0640" unicode="ـ" horiz-adv-x="178" d="M181 71 L181 0 L-4 0 L-4 71 L181 71 Z "/>
<glyph glyph-name="uni0641" unicode="ف" horiz-adv-x="989" d="M745 679 Q765 679 779.5 664.5 Q794 650 794 630 Q794 610 779.5 595.5 Q765 581 745 581 Q724 581 709.5 595.5 Q695 610 695 630 Q695 650 709.5 664.5 Q724 679 745 679 Z M745 472 Q831 472 882 425 Q933 376 934 290 L934 91 Q934 52 904 24 Q878 0 844 0 L225 0 Q176 0 135 30 Q69 79 69 165 L69 353 L112 388 L154 388 L154 165 Q154 122 186 95 Q212 71 250 71 L579 71 Q546 102 527.5 147 Q509 192 509 241 Q509 359 584 421 Q647 472 745 472 Z M745 401 Q667 401 628 351 Q595 309 595 238 Q596 161 646 113 Q691 71 758 71 L811 71 Q828 71 838.5 81.5 Q849 92 849 109 L849 290 Q849 345 818 375 Q791 401 745 401 Z "/>
<glyph glyph-name="uni0642" unicode="ق" horiz-adv-x="766" d="M463 679 Q483 679 497.5 664.5 Q512 650 512 630 Q512 610 497.5 595.5 Q483 581 463 581 Q442 581 427.5 595.5 Q413 610 413 630 Q413 650 427.5 664.5 Q442 679 463 679 Z M583 679 Q603 679 617.5 664.5 Q632 650 632 630 Q632 610 617.5 595.5 Q603 581 583 581 Q563 581 548.5 595.5 Q534 610 534 630 Q534 650 548.5 664.5 Q563 679 583 679 Z M519 472 Q595 472 645 435 Q711 386 711 291 L711 9 Q711 -84 667 -144 Q629 -195 563 -220 Q510 -239 445 -239 L335 -239 Q220 -239 149 -182 Q69 -117 69 9 L69 150 L112 185 L154 185 L154 11 Q154 -79 200 -121 Q233 -152 298 -163 Q323 -167 390 -167 Q457 -167 483 -163 Q538 -153 571 -129 Q626 -88 626 10 Q576 -8 516 -9 Q426 -10 365 46 Q289 116 289 239 Q289 336 341 398 Q404 472 519 472 Z M518 401 Q453 401 415 358 Q374 313 374 230 Q374 158 415 113 Q452 70 514 69 Q577 68 626 87 L626 290 Q626 344 592 375 Q563 401 518 401 Z "/>
<glyph glyph-name="uni0643" unicode="ك" horiz-adv-x="957" d="M888 716 L888 94 Q888 55 860 27 Q833 0 798 0 L225 0 Q161 0 115 47 Q69 96 69 165 L69 353 L112 388 L154 388 L154 165 Q154 124 184 96 Q212 71 250 71 L765 71 Q782 71 793 82 Q803 92 803 109 L803 716 L888 716 Z M494 601 Q507 602 519 602 Q544 602 567 597 L567 551 Q546 557 524 557 Q517 557 510 556 Q479 553 462 536 Q442 516 441 481 Q440 442 456 417 Q475 388 510 388 L622 388 L622 366 L601 340 L332 340 L332 388 L411 388 Q397 408 389 434 Q382 458 383 482 Q385 533 412 564 Q441 595 494 601 Z "/>
<glyph glyph-name="uni0644" unicode="ل" horiz-adv-x="780" d="M711 716 L711 9 Q711 -111 638 -176 Q567 -239 445 -239 L335 -239 Q216 -239 145 -178 Q69 -113 69 9 L69 218 L112 253 L154 253 L154 11 Q154 -78 198 -120 Q231 -152 298 -164 Q323 -168 390 -168 Q458 -168 483 -164 Q550 -152 583 -120 Q626 -78 626 11 L626 716 L711 716 Z "/>
<glyph glyph-name="uni0645" unicode="م" horiz-adv-x="609" d="M363 471 Q446 471 497 429 Q554 380 554 290 L554 94 Q554 55 526 27 Q501 0 464 0 L178 0 Q161 0 150.5 -10.5 Q140 -21 140 -38 L140 -338 L97 -373 L55 -373 L55 -23 Q55 19 86 47 Q112 71 146 71 L187 71 Q161 98 146.5 141 Q132 184 133 232 Q136 348 204 413 Q264 469 363 471 Z M361 400 Q289 400 250 344 Q218 299 218 236 Q218 158 257 111 Q292 71 343 71 L431 71 Q448 71 458.5 81.5 Q469 92 469 109 L469 290 Q469 335 443 366 Q414 400 361 400 Z "/>
<glyph glyph-name="uni0646" unicode="ن" horiz-adv-x="780" d="M381 471 Q401 471 415.5 456.5 Q430 442 430 422 Q430 402 415.5 387.5 Q401 373 381 373 Q361 373 346.5 387.5 Q332 402 332 422 Q332 442 346.5 456.5 Q361 471 381 471 Z M711 460 L711 9 Q711 -111 638 -176 Q567 -239 445 -239 L335 -239 Q216 -239 145 -178 Q69 -113 69 9 L69 218 L112 253 L154 253 L154 11 Q154 -78 198 -120 Q231 -152 298 -164 Q323 -168 390 -168 Q458 -168 483 -164 Q550 -152 583 -120 Q626 -78 626 11 L626 460 L711 460 Z "/>
<glyph glyph-name="uni0647" unicode="ه" horiz-adv-x="531" d="M476 487 L476 172 Q476 91 430 44 Q379 -9 276 -9 Q186 -9 131 37 Q55 99 55 224 Q55 350 136 422 Q192 471 266 476 Q275 477 284 477 Q337 477 391 452 L434 487 L476 487 Z M284 403 Q229 397 190 358 Q140 308 140 223 Q140 141 180 99 Q215 62 277 62 Q336 62 364 93 Q391 123 391 172 L391 383 Q347 405 303 405 Q293 405 284 403 Z "/>
<glyph glyph-name="uni0648" unicode="و" horiz-adv-x="532" d="M285 472 Q366 472 416 431 Q477 382 477 290 L477 9 Q476 -119 394 -184 Q351 -217 292 -230 Q253 -238 212 -238 Q188 -238 166 -237 L133 -196 L133 -164 Q162 -168 196 -168 Q228 -168 249 -164 Q316 -152 349 -120 Q391 -78 392 10 Q342 -8 283 -9 Q175 -10 112 67 Q56 134 56 239 Q56 343 115 406 Q178 472 285 472 Z M285 401 Q211 401 173 348 Q141 303 141 230 Q141 157 182 112 Q220 70 281 69 Q344 68 392 87 L392 290 Q392 353 348 383 Q323 401 285 401 Z "/>
<glyph glyph-name="uni0649" unicode="ى" horiz-adv-x="754" d="M497 472 Q501 472 506 472 Q563 472 625 452 L625 386 Q553 403 511 402 Q455 400 423 372 Q392 345 388 291 Q388 284 388 278 Q388 235 411 210 Q425 193 448 182 Q471 171 523 155 Q591 135 621 118 Q665 93 686 54 Q708 14 708 -39 Q708 -61 704 -80 Q689 -160 617 -200 Q550 -239 445 -239 L334 -239 Q210 -239 138 -172 Q69 -108 69 9 L69 139 L112 174 L154 174 L154 10 Q154 -66 187 -108 Q220 -149 298 -163 Q323 -167 390 -167 Q458 -167 483 -163 Q543 -153 577 -134 Q619 -109 625 -61 Q627 -49 627 -37 Q627 1 612 26 Q598 46 574 59 Q550 72 493 88 Q437 104 409 116 Q365 135 339 168 Q306 211 306 279 Q306 288 307 296 Q310 341 327 377.5 Q344 414 370 434 Q420 470 497 472 Z "/>
<glyph glyph-name="uni064A" unicode="ي" horiz-adv-x="754" d="M497 472 Q501 472 506 472 Q563 472 625 452 L625 386 Q553 403 511 402 Q455 400 423 372 Q392 345 388 291 Q388 284 388 278 Q388 235 411 210 Q425 193 448 182 Q471 171 523 155 Q590 135 621 118 Q665 94 686 54 Q708 14 708 -39 Q708 -61 704 -80 Q689 -160 617 -200 Q550 -239 445 -239 L334 -239 Q210 -239 138 -172 Q69 -108 69 9 L69 139 L112 174 L154 174 L154 10 Q154 -66 187 -108 Q220 -149 298 -163 Q323 -167 390 -167 Q458 -167 483 -163 Q543 -153 577 -134 Q619 -109 625 -61 Q627 -49 627 -37 Q627 1 612 26 Q598 47 574 59.5 Q550 72 492 88 Q436 104 409 116 Q365 135 339 168 Q306 211 306 279 Q306 288 307 296 Q310 341 327 377.5 Q344 414 370 434 Q420 470 497 472 Z M330 -298 Q350 -298 364.5 -312.5 Q379 -327 379 -347 Q379 -367 364.5 -381.5 Q350 -396 330 -396 Q309 -396 294.5 -381.5 Q280 -367 280 -347 Q280 -327 294.5 -312.5 Q309 -298 330 -298 Z M451 -298 Q471 -298 485.5 -312.5 Q500 -327 500 -347 Q500 -367 485.5 -381.5 Q471 -396 451 -396 Q430 -396 415.5 -381.5 Q401 -367 401 -347 Q401 -327 415.5 -312.5 Q430 -298 451 -298 Z "/>
<glyph glyph-name="uni064B" unicode="ً" d="M216 693 L17 638 L0 660 L0 677 L216 737 L216 693 Z M216 601 L17 546 L0 568 L0 585 L216 644 L216 601 Z "/>
<glyph glyph-name="uni064C" unicode="ٌ" d="M268 728 Q299 727 318.5 705.5 Q338 684 338 651 Q338 623 322 599 Q309 581 291 568 Q249 538 200 538 Q198 538 194 538 Q133 540 92 584 L43 540 L17 540 L0 555 L101 644 Q115 616 141.5 598.5 Q168 581 196 581 Q208 581 219 584 Q184 611 184 651 Q184 653 184 657 Q187 690 208.5 709.5 Q230 729 263 729 Q265 729 268 728 Z M262 690 Q228 691 228 650 Q228 634 237.5 620.5 Q247 607 262 602 Q276 610 285 623 Q294 636 294 649 Q295 689 262 690 Z "/>
<glyph glyph-name="uni064D" unicode="ٍ" d="M216 -134 L17 -189 L0 -167 L0 -150 L216 -91 L216 -134 Z M216 -226 L17 -281 L0 -259 L0 -242 L216 -183 L216 -226 Z "/>
<glyph glyph-name="uni064E" unicode="َ" d="M216 622 L17 567 L0 589 L0 606 L216 666 L216 622 Z "/>
<glyph glyph-name="uni064F" unicode="ُ" d="M151 732 Q182 731 201.5 709.5 Q221 688 221 654 Q221 621 200 596 Q179 571 140 559 L17 525 L0 547 L0 564 L98 590 Q67 615 67 655 Q67 657 67 660 Q70 693 91.5 712.5 Q113 732 146 732 Q149 732 151 732 Z M145 693 Q111 694 111 653 Q111 638 121 624 Q131 610 145 606 Q159 613 168 626 Q177 639 177 653 Q178 692 145 693 Z "/>
<glyph glyph-name="uni0650" unicode="ِ" d="M216 -160 L17 -215 L0 -193 L0 -176 L216 -116 L216 -160 Z "/>
<glyph glyph-name="uni0651" unicode="ّ" d="M244 709 L244 599 Q244 580 232 567 Q219 552 197 552 L150 552 L137 566 L136 566 Q133 562 128 558 Q118 552 107 552 L47 552 Q26 552 13 566 Q0 579 0 599 L0 667 L22 685 L43 685 L43 601 Q43 596 46 593 Q50 587 57 587 L86 587 Q92 587 96 591 Q100 595 100 601 L100 685 L144 685 L144 587 L187 587 Q194 587 197 592 Q201 595 201 601 L201 709 L244 709 Z "/>
<glyph glyph-name="uni0652" unicode="ْ" d="M77 701 Q109 701 131.5 678 Q154 655 154 622 Q154 589 133 569 Q112 549 77 549 Q42 549 21 569 Q0 589 0 622 Q0 659 27 682 Q49 701 77 701 Z M77 586 Q93 586 102.5 597 Q112 608 112 625 Q112 641 102 652.5 Q92 664 77 664 Q62 664 52 652.5 Q42 641 42 625 Q42 607 52 596.5 Q62 586 77 586 Z "/>
<glyph glyph-name="uni0653" unicode="ٓ" d="M100 662 Q126 663 154 650 L194 632 Q214 624 230 624 Q246 624 261 633 Q270 639 281 651 L304 634 Q283 605 266 591 Q245 576 219 576 Q199 576 174 585 L133 605 Q114 614 100 614 Q76 614 43 584 L20 602 Q55 661 100 662 Z "/>
<glyph glyph-name="uni0654" unicode="ٔ" d="M81 769 Q92 772 104 772 Q127 772 152 763 L152 722 Q134 728 117 728 Q110 728 103 727 Q85 725 75 709 Q65 696 65 674 Q65 655 77 639 Q93 619 121 619 L185 619 L185 602 L165 578 L-3 578 L-3 619 L41 619 Q20 646 20 685 Q20 714 32 735 Q48 761 81 769 Z "/>
<glyph glyph-name="uni0655" unicode="ٕ" d="M87 -77 Q98 -76 108 -76 Q131 -76 154 -83 L154 -124 Q134 -119 118 -119 Q115 -119 112 -119 Q88 -121 77 -138 Q67 -151 67 -172 Q67 -192 79 -208 Q95 -227 123 -227 L187 -227 L187 -244 L167 -268 L0 -268 L0 -227 L43 -227 Q22 -201 22 -164 Q22 -133 34 -111 Q51 -84 87 -77 Z "/>
<glyph glyph-name="uni0656" unicode="ٖ" d="M0 -75 L44 -75 L44 -266 L22 -284 L0 -284 L0 -75 Z "/>
<glyph glyph-name="uni0657" unicode="ٗ" d="M58 494 Q36 494 22 509 Q3 527 1 561 Q1 565 1 567 Q1 601 20 643 Q37 681 66 716 L86 716 L110 697 Q88 670 72 636 Q62 615 57 593 Q77 594 91 582 Q106 569 107 546 Q107 532 101 519 Q87 494 58 494 Z "/>
<glyph glyph-name="uni0658" unicode="٘" d="M44 680 L44 594 Q44 551 102 551 Q130 551 145.5 562 Q161 573 161 593 L161 737 L205 737 L205 589 Q205 555 176.5 534 Q148 513 103 513 Q53 513 25 535 Q0 554 0 588 L0 662 L22 680 L44 680 Z "/>
<glyph glyph-name="uni0660" unicode="٠" horiz-adv-x="252" d="M128 325 L208 245 L208 209 L130 129 L32 226 L128 325 Z "/>
<glyph glyph-name="uni0661" unicode="١" horiz-adv-x="269" d="M177 674 L177 35 L134 0 L92 0 L92 674 L177 674 Z "/>
<glyph glyph-name="uni0662" unicode="٢" horiz-adv-x="532" d="M308 686 Q314 686 318 686 Q396 686 463 661 L463 585 Q396 608 339 608 Q288 608 252 590 Q177 554 177 456 L177 35 L134 0 L92 0 L92 460 Q92 557 137 614 Q175 661 241 678 Q271 686 308 686 Z "/>
<glyph glyph-name="uni0663" unicode="٣" horiz-adv-x="748" d="M177 674 L177 413 Q213 400 258 400 Q317 399 340 422 Q359 441 359 482 L359 674 L435 674 L435 483 Q435 443 428 424 Q470 402 524 401 Q580 401 600 423 Q617 442 617 482 L617 674 L693 674 L693 488 Q693 438 681 406 Q670 378 648 359 Q608 325 540 325 Q499 325 456.5 336 Q414 347 394 363 Q344 325 284 325 Q235 324 177 341 L177 35 L134 0 L92 0 L92 674 L177 674 Z "/>
<glyph glyph-name="uni0664" unicode="٤" horiz-adv-x="506" d="M284 687 Q338 688 410 664 L410 592 Q353 609 311 609 Q306 609 302 609 Q245 607 211 577 Q181 550 179 502 Q177 449 217 419 Q244 398 287 398 L398 398 L398 370 L363 327 Q252 327 198 290 Q149 254 149 193 Q149 142 177 111 Q214 71 304 71 L441 71 L441 43 L406 0 L272 0 Q178 0 122 50 Q64 100 64 183 Q64 250 102 302 Q134 344 182 363 Q146 379 123 411 Q98 447 93 498 Q93 504 93 511 Q93 551 107 585 Q150 683 284 687 Z "/>
<glyph glyph-name="uni0665" unicode="٥" horiz-adv-x="532" d="M235 587 L300 587 Q361 566 408 504 Q476 413 490 280 Q493 259 493 235 Q493 127 446 67 Q389 -9 270 -9 Q153 -9 95 64 Q48 126 48 233 Q48 260 51 284 Q67 415 125 498 Q171 565 235 587 Z M278 517 L262 517 Q211 497 173 417 Q132 331 133 246 Q133 162 158 119 Q190 62 270 62 Q331 62 363 94 Q407 138 407 236 Q407 240 407 248 Q406 319 376 394 Q337 494 278 517 Z "/>
<glyph glyph-name="uni0666" unicode="٦" horiz-adv-x="532" d="M224 686 Q261 686 291 678 Q357 661 395 614 Q440 557 440 460 L440 35 L397 0 L355 0 L355 456 Q355 554 280 590 Q244 608 193 608 Q136 608 69 585 L69 661 Q136 686 214 686 Q218 686 224 686 Z "/>
<glyph glyph-name="uni0667" unicode="٧" horiz-adv-x="506" d="M477 679 L342 121 Q331 77 318 48 Q303 18 284 6 Q275 0 274 0 L231 0 Q226 2 220 6 Q203 19 188 50 Q176 77 164 121 L30 679 L121 679 L253 84 L385 679 L477 679 Z "/>
<glyph glyph-name="uni0668" unicode="٨" horiz-adv-x="506" d="M231 679 L274 679 L284 673 Q303 661 318 631 Q331 604 342 558 L477 0 L385 0 L253 595 L121 0 L30 0 L164 558 Q175 603 190 633 Q204 662 220 673 Q226 677 231 679 Z "/>
<glyph glyph-name="uni0669" unicode="٩" horiz-adv-x="517" d="M252 686 Q334 686 387 639 Q444 588 444 496 L444 35 L401 0 L359 0 L359 288 L262 288 Q179 288 124 324 Q46 375 46 480 Q46 573 100 627 Q158 686 252 686 Z M252 610 Q195 610 161 574 Q130 540 131 488 Q132 432 164 400 Q200 364 273 364 L359 364 L359 499 Q359 549 330 580 Q300 610 252 610 Z "/>
<glyph glyph-name="uni066A" unicode="٪" horiz-adv-x="519" d="M121 689 L187 623 L187 592 L121 525 L39 607 L121 689 Z M487 673 L90 0 L18 0 L414 673 L487 673 Z M396 162 L463 95 L463 64 L397 -2 L314 79 L396 162 Z "/>
<glyph glyph-name="uni066B" unicode="٫" horiz-adv-x="209" d="M103 116 Q125 116 140 101 Q158 83 160 49 Q160 45 160 43 Q160 9 141 -33 Q125 -70 94 -106 L75 -106 L51 -87 Q72 -60 88 -26 Q99 -5 104 17 Q83 16 70 28 Q55 41 54 64 Q54 78 60 91 Q74 116 103 116 Z "/>
<glyph glyph-name="uni066C" unicode="٬" horiz-adv-x="209" d="M136 217 L159 198 Q140 173 122 137 Q112 116 107 94 Q109 94 110 94 Q130 94 144 80 Q157 66 157 46 Q157 34 151 20 Q137 -5 108 -5 Q86 -5 72 10 Q53 28 51 62 Q51 66 51 68 Q51 101 70 144 Q86 182 116 217 L136 217 Z "/>
<glyph glyph-name="uni066D" unicode="٭" horiz-adv-x="433" d="M249 682 L249 533 L373 586 L392 524 L256 492 L344 375 L294 339 L217 458 L141 338 L89 376 L178 492 L42 524 L61 586 L186 533 L186 656 L218 682 L249 682 Z "/>
<glyph glyph-name="uni066E" unicode="ٮ" horiz-adv-x="957" d="M888 460 L888 94 Q888 59 866 33 Q838 0 798 0 L225 0 Q168 0 126 38 Q69 87 69 165 L69 353 L112 388 L154 388 L154 165 Q154 126 182 99 Q209 71 250 71 L765 71 Q782 71 792.5 81.5 Q803 92 803 109 L803 460 L888 460 Z "/>
<glyph glyph-name="uni066F" unicode="ٯ" horiz-adv-x="766" d="M519 472 Q595 472 645 435 Q711 386 711 291 L711 9 Q711 -84 667 -144 Q629 -195 563 -220 Q510 -239 445 -239 L335 -239 Q220 -239 149 -182 Q69 -117 69 9 L69 150 L112 185 L154 185 L154 11 Q154 -79 200 -121 Q233 -152 298 -163 Q323 -167 390 -167 Q457 -167 483 -163 Q538 -153 571 -129 Q626 -88 626 10 Q576 -8 516 -9 Q426 -10 365 46 Q289 116 289 239 Q289 336 341 398 Q404 472 519 472 Z M518 401 Q453 401 415 358 Q374 313 374 230 Q374 158 415 113 Q452 70 514 69 Q577 68 626 87 L626 290 Q626 344 592 375 Q563 401 518 401 Z "/>
<glyph glyph-name="uni0670" unicode="ٰ" d="M0 760 L44 760 L44 569 L22 551 L0 551 L0 760 Z "/>
<glyph glyph-name="uni0671" unicode="ٱ" horiz-adv-x="223" d="M166 940 Q174 942 183 942 Q209 942 229.5 929 Q250 916 257 893 Q260 884 260 874 Q260 836 221 810 Q195 793 154 793 Q126 793 94 801 Q82 804 55 813 Q21 825 11 824 Q-15 823 -46 795 L-69 812 Q-34 871 11 872 Q36 873 64 861 Q86 894 110 914 Q137 935 166 940 Z M174 902 Q155 898 140 887 Q122 875 104 849 Q143 836 169 836 Q180 836 190 838 Q204 842 213 851.5 Q222 861 222 872 Q222 877 220 881 Q212 903 184 903 Q179 903 174 902 Z M154 716 L154 10 L111 -25 L69 -25 L69 716 L154 716 Z "/>
<glyph glyph-name="uni0674" unicode="ٴ" d="M81 769 Q92 772 104 772 Q127 772 152 763 L152 722 Q134 728 117 728 Q110 728 103 727 Q85 725 75 709 Q65 696 65 674 Q65 655 77 639 Q93 619 121 619 L185 619 L185 602 L165 578 L-3 578 L-3 619 L41 619 Q20 646 20 685 Q20 714 32 735 Q48 761 81 769 Z "/>
<glyph glyph-name="uni0679" unicode="ٹ" horiz-adv-x="1003" d="M432 594 L431 498 Q455 527 485 545 Q513 562 542 564 Q547 564 550 564 Q582 564 607 544 Q632 524 632 477 L632 444 Q632 423 620 408 Q603 388 576 388 L362 388 L362 429 L388 429 L388 594 L432 594 Z M545 523 Q516 522 483 497 Q450 470 431 429 L568 429 Q587 429 587 448 L587 476 Q587 502 573 514 Q562 523 545 523 Z M888 460 L888 94 Q888 59 866 33 Q838 0 798 0 L225 0 Q168 0 126 38 Q69 87 69 165 L69 353 L112 388 L154 388 L154 165 Q154 126 182 99 Q209 71 250 71 L765 71 Q782 71 792.5 81.5 Q803 92 803 109 L803 460 L888 460 Z "/>
<glyph glyph-name="uni067E" unicode="پ" horiz-adv-x="957" d="M888 460 L888 94 Q888 59 866 33 Q838 0 798 0 L225 0 Q168 0 126 38 Q69 87 69 165 L69 353 L112 388 L154 388 L154 165 Q154 126 182 99 Q209 71 250 71 L765 71 Q782 71 792.5 81.5 Q803 92 803 109 L803 460 L888 460 Z M419 -104 Q439 -104 453.5 -118.5 Q468 -133 468 -154 Q468 -174 453.5 -188.5 Q439 -203 419 -203 Q398 -203 383.5 -188.5 Q369 -174 369 -154 Q369 -133 383.5 -118.5 Q398 -104 419 -104 Z M540 -104 Q560 -104 574.5 -118.5 Q589 -133 589 -154 Q589 -174 574.5 -188.5 Q560 -203 540 -203 Q519 -203 504.5 -188.5 Q490 -174 490 -154 Q490 -133 504.5 -118.5 Q519 -104 540 -104 Z M479 -205 Q498 -205 512 -219 Q526 -233 526 -252 Q526 -271 512 -285 Q498 -299 479 -299 Q460 -299 446 -285 Q432 -271 432 -252 Q432 -233 446 -219 Q460 -205 479 -205 Z "/>
<glyph glyph-name="uni0686" unicode="چ" horiz-adv-x="651" d="M344 471 Q401 472 450 455 Q506 436 541 395 Q596 331 596 222 L596 94 Q596 55 570 28 Q544 0 507 0 L299 0 Q216 0 174 -48 Q141 -83 141 -151 Q141 -212 172 -253 Q213 -308 301 -308 Q316 -308 334 -306 L334 -334 L298 -378 Q239 -378 203.5 -367.5 Q168 -357 134 -328 Q57 -265 56 -152 Q56 -30 133 25 Q197 71 312 71 L474 71 Q491 71 501 81.5 Q511 92 511 109 L511 225 Q511 302 471 347 Q426 397 340 397 Q306 397 278.5 393.5 Q251 390 180 376 L180 443 Q272 471 344 471 Z M329 -105 Q350 -105 364 -119.5 Q378 -134 378 -155 Q378 -175 364 -189.5 Q350 -204 329 -204 Q309 -204 294.5 -189.5 Q280 -175 280 -155 Q280 -134 294.5 -119.5 Q309 -105 329 -105 Z M451 -105 Q471 -105 485.5 -119.5 Q500 -134 500 -155 Q500 -175 485.5 -189.5 Q471 -204 451 -204 Q431 -204 416 -189.5 Q401 -175 401 -155 Q401 -134 416 -119.5 Q431 -105 451 -105 Z M390 -206 Q410 -206 423.5 -220 Q437 -234 437 -253 Q437 -272 423.5 -286 Q410 -300 390 -300 Q371 -300 357 -286 Q343 -272 343 -253 Q343 -234 357 -220 Q371 -206 390 -206 Z "/>
<glyph glyph-name="uni0688" unicode="ڈ" horiz-adv-x="517" d="M183 785 L183 689 Q207 719 237 737 Q266 754 294 756 Q298 756 302 756 Q334 756 359 736 Q384 715 384 669 L384 635 Q384 614 372 599 Q356 579 328 579 L114 579 L114 620 L140 620 L140 785 L183 785 Z M297 715 Q268 714 235 689 Q202 661 183 620 L320 620 Q339 620 339 639 L339 667 Q339 694 325 706 Q314 715 297 715 Z M244 471 Q335 464 393 408 Q457 346 457 247 L457 94 Q457 56 432 29 Q405 0 367 0 L39 0 L39 71 L334 71 Q351 71 361.5 81.5 Q372 92 372 109 L372 235 Q372 306 328 353 Q283 401 187 402 Q159 402 140 399 L140 466 Q176 472 217 472 Q231 472 244 471 Z "/>
<glyph glyph-name="uni0691" unicode="ڑ" horiz-adv-x="402" d="M137 788 L136 692 Q160 721 190 739 Q218 756 247 758 Q252 758 255 758 Q287 758 312 738 Q337 717 337 671 L337 637 Q337 616 325 601 Q308 581 281 581 L67 581 L67 622 L93 622 L93 788 L137 788 Z M250 716 Q229 717 203 701 Q160 673 136 622 L273 622 Q292 622 292 641 L292 669 Q292 696 276 707 Q264 715 250 716 Z M332 460 L332 9 Q331 -118 250 -183 Q200 -222 128 -233 Q100 -238 67 -238 Q41 -238 21 -237 L-12 -196 L-12 -164 Q18 -168 51 -168 Q83 -168 104 -164 Q178 -151 211 -113 Q247 -70 247 12 L247 460 L332 460 Z "/>
<glyph glyph-name="uni0698" unicode="ژ" horiz-adv-x="402" d="M234 776 Q253 776 267 762 Q281 748 281 729 Q281 710 267 696 Q253 682 234 682 Q215 682 201 696 Q187 710 187 729 Q187 748 201 762 Q215 776 234 776 Z M174 680 Q194 680 208.5 665.5 Q223 651 223 631 Q223 610 208.5 595.5 Q194 581 174 581 Q153 581 138.5 595.5 Q124 610 124 631 Q124 651 138.5 665.5 Q153 680 174 680 Z M295 680 Q315 680 329.5 665.5 Q344 651 344 631 Q344 610 329.5 595.5 Q315 581 295 581 Q274 581 259.5 595.5 Q245 610 245 631 Q245 651 259.5 665.5 Q274 680 295 680 Z M332 460 L332 9 Q332 -116 252 -181 Q205 -220 135 -232 Q103 -238 67 -238 Q41 -238 21 -237 L-12 -196 L-12 -164 Q18 -168 51 -168 Q83 -168 104 -164 Q167 -153 200 -124 Q247 -82 247 12 L247 460 L332 460 Z "/>
<glyph glyph-name="uni06A1" unicode="ڡ" horiz-adv-x="989" d="M745 472 Q831 472 882 425 Q933 376 934 290 L934 91 Q934 52 904 24 Q878 0 844 0 L225 0 Q176 0 135 30 Q69 79 69 165 L69 353 L112 388 L154 388 L154 165 Q154 122 186 95 Q212 71 250 71 L579 71 Q546 102 527.5 147 Q509 192 509 241 Q509 359 584 421 Q647 472 745 472 Z M745 401 Q667 401 628 351 Q595 309 595 238 Q596 161 646 113 Q691 71 758 71 L811 71 Q828 71 838.5 81.5 Q849 92 849 109 L849 290 Q849 345 818 375 Q791 401 745 401 Z "/>
<glyph glyph-name="uni06A4" unicode="ڤ" horiz-adv-x="989" d="M745 776 Q764 776 778 762 Q792 748 792 729 Q792 710 778 696 Q764 682 745 682 Q726 682 712 696 Q698 710 698 729 Q698 748 712 762 Q726 776 745 776 Z M685 679 Q705 679 719.5 664.5 Q734 650 734 630 Q734 610 719.5 595.5 Q705 581 685 581 Q664 581 649.5 595.5 Q635 610 635 630 Q635 650 649.5 664.5 Q664 679 685 679 Z M806 679 Q826 679 840.5 664.5 Q855 650 855 630 Q855 610 840.5 595.5 Q826 581 806 581 Q786 581 771.5 595.5 Q757 610 757 630 Q757 650 771.5 664.5 Q786 679 806 679 Z M745 472 Q831 472 882 425 Q933 376 934 290 L934 91 Q934 52 904 24 Q878 0 844 0 L225 0 Q176 0 135 30 Q69 79 69 165 L69 353 L112 388 L154 388 L154 165 Q154 122 186 95 Q212 71 250 71 L579 71 Q546 102 527.5 147 Q509 192 509 241 Q509 359 584 421 Q647 472 745 472 Z M745 401 Q667 401 628 351 Q595 309 595 238 Q596 161 646 113 Q691 71 758 71 L811 71 Q828 71 838.5 81.5 Q849 92 849 109 L849 290 Q849 345 818 375 Q791 401 745 401 Z "/>
<glyph glyph-name="uni06A9" unicode="ک" horiz-adv-x="944" d="M812 731 L812 653 L561 504 Q663 477 742 414 Q888 298 888 94 Q888 58 865 32 Q839 0 799 0 L225 0 Q167 0 122 40 Q69 89 69 165 L69 349 L123 393 L154 393 L154 165 Q154 123 185 95 Q212 71 250 71 L766 71 Q789 71 798 84 Q803 92 803 105 Q803 108 803 111 Q793 224 744 294 Q664 411 488 434 Q482 434 482 441 L482 541 L812 731 Z "/>
<glyph glyph-name="uni06AF" unicode="گ" horiz-adv-x="944" d="M482 664 L812 855 L812 780 L482 589 L482 664 Z M812 731 L812 653 L561 504 Q663 477 742 414 Q888 298 888 94 Q888 58 865 32 Q839 0 799 0 L225 0 Q167 0 122 40 Q69 89 69 165 L69 349 L123 393 L154 393 L154 165 Q154 123 185 95 Q212 71 250 71 L766 71 Q789 71 798 84 Q803 92 803 105 Q803 108 803 111 Q793 224 744 294 Q664 411 488 434 Q482 434 482 441 L482 541 L812 731 Z "/>
<glyph glyph-name="uni06BA" unicode="ں" horiz-adv-x="780" d="M711 460 L711 9 Q711 -111 638 -176 Q567 -239 445 -239 L335 -239 Q216 -239 145 -178 Q69 -113 69 9 L69 218 L112 253 L154 253 L154 11 Q154 -78 198 -120 Q231 -152 298 -164 Q323 -168 390 -168 Q458 -168 483 -164 Q550 -152 583 -120 Q626 -78 626 11 L626 460 L711 460 Z "/>
<glyph glyph-name="uni06BE" unicode="ھ" horiz-adv-x="794" d="M483 498 Q590 498 653 445 Q739 372 739 199 L739 94 Q739 60 717 33 Q690 0 649 0 L417 0 Q360 0 339 7 L335 7 Q315 0 256 0 L90 0 L55 43 L55 71 L211 71 Q188 97 175 133 Q161 172 161 214 Q161 285 192 334 Q218 375 263 392 L263 449 Q319 474 371 486 Q430 499 483 498 Z M461 423 Q396 422 340 405 Q417 404 462 358 Q513 308 513 214 Q513 176 502 140 Q489 98 464 71 L616 71 Q629 71 640 78 Q654 90 654 109 L654 184 Q654 331 595 383 Q551 423 461 423 Z M336 344 Q283 344 256 305 Q234 272 234 213 Q235 160 258 123 Q286 79 336 77 Q378 79 406 113 Q437 153 438 213 Q439 279 407 315 Q380 344 336 344 Z "/>
<glyph glyph-name="uni06C0" unicode="ۀ" horiz-adv-x="531" d="M290 745 Q301 747 313 747 Q337 747 361 739 L361 698 Q343 703 326 703 Q319 703 312 702 Q294 700 284 685 Q274 671 274 650 Q274 630 286 614 Q302 595 330 595 L394 595 L394 578 L374 554 L206 554 L206 595 L250 595 Q229 622 229 660 Q229 689 241 711 Q257 737 290 745 Z M476 487 L476 172 Q476 91 430 44 Q379 -9 276 -9 Q186 -9 131 37 Q55 99 55 224 Q55 350 136 422 Q192 471 266 476 Q275 477 284 477 Q337 477 391 452 L434 487 L476 487 Z M284 403 Q229 397 190 358 Q140 308 140 223 Q140 141 180 99 Q215 62 277 62 Q336 62 364 93 Q391 123 391 172 L391 383 Q347 405 303 405 Q293 405 284 403 Z "/>
<glyph glyph-name="uni06C1" unicode="ہ" horiz-adv-x="531" d="M476 487 L476 172 Q476 91 430 44 Q379 -9 276 -9 Q186 -9 131 37 Q55 99 55 224 Q55 350 136 422 Q192 471 266 476 Q275 477 284 477 Q337 477 391 452 L434 487 L476 487 Z M284 403 Q229 397 190 358 Q140 308 140 223 Q140 141 180 99 Q215 62 277 62 Q336 62 364 93 Q391 123 391 172 L391 383 Q347 405 303 405 Q293 405 284 403 Z "/>
<glyph glyph-name="uni06C2" unicode="ۂ" horiz-adv-x="531" d="M290 745 Q301 747 313 747 Q337 747 361 739 L361 698 Q343 703 326 703 Q319 703 312 702 Q294 700 284 685 Q274 671 274 650 Q274 630 286 614 Q302 595 330 595 L394 595 L394 578 L374 554 L206 554 L206 595 L250 595 Q229 621 229 658 Q229 689 241 711 Q257 737 290 745 Z M476 487 L476 172 Q476 91 430 44 Q379 -9 276 -9 Q186 -9 131 37 Q55 99 55 224 Q55 350 136 422 Q192 471 266 476 Q275 477 284 477 Q337 477 391 452 L434 487 L476 487 Z M284 403 Q229 397 190 358 Q140 308 140 223 Q140 141 180 99 Q215 62 277 62 Q336 62 364 93 Q391 123 391 172 L391 383 Q347 405 303 405 Q293 405 284 403 Z "/>
<glyph glyph-name="uni06C3" unicode="ۃ" horiz-adv-x="531" d="M306 679 Q326 679 340.5 664.5 Q355 650 355 630 Q355 610 340.5 595.5 Q326 581 306 581 Q285 581 270.5 595.5 Q256 610 256 630 Q256 650 270.5 664.5 Q285 679 306 679 Z M427 679 Q447 679 461.5 664.5 Q476 650 476 630 Q476 610 461.5 595.5 Q447 581 427 581 Q406 581 391.5 595.5 Q377 610 377 630 Q377 650 391.5 664.5 Q406 679 427 679 Z M476 487 L476 172 Q476 91 430 44 Q379 -9 276 -9 Q186 -9 131 37 Q55 99 55 224 Q55 350 136 422 Q192 471 266 476 Q275 477 284 477 Q337 477 391 452 L434 487 L476 487 Z M284 403 Q229 397 190 358 Q140 308 140 223 Q140 141 180 99 Q215 62 277 62 Q336 62 364 93 Q391 123 391 172 L391 383 Q347 405 303 405 Q293 405 284 403 Z "/>
<glyph glyph-name="uni06CC" unicode="ی" horiz-adv-x="754" d="M497 472 Q501 472 506 472 Q563 472 625 452 L625 386 Q553 403 511 402 Q455 400 423 372 Q392 345 388 291 Q388 284 388 278 Q388 235 411 210 Q425 193 448 182 Q471 171 523 155 Q590 135 621 118 Q665 94 686 54 Q708 14 708 -39 Q708 -61 704 -80 Q689 -160 617 -200 Q550 -239 445 -239 L334 -239 Q210 -239 138 -172 Q69 -108 69 9 L69 139 L112 174 L154 174 L154 10 Q154 -66 187 -108 Q220 -149 298 -163 Q323 -167 390 -167 Q458 -167 483 -163 Q543 -153 577 -134 Q619 -109 625 -61 Q627 -49 627 -37 Q627 1 612 26 Q598 47 574 59.5 Q550 72 492 88 Q436 104 409 116 Q365 135 339 168 Q306 211 306 279 Q306 288 307 296 Q310 341 327 377.5 Q344 414 370 434 Q420 470 497 472 Z "/>
<glyph glyph-name="uni06D2" unicode="ے" horiz-adv-x="656" d="M459 487 L459 452 Q459 398 445 363.5 Q431 329 397 303 Q362 276 281 243 Q196 208 170 190 Q123 161 123 125 Q124 99 140 85 Q156 71 183 71 L648 71 L648 43 L613 0 L173 0 Q109 0 72 40 Q43 72 42 117 Q42 153 60.5 185.5 Q79 218 113 240 Q147 262 233 297 Q302 326 329 345 Q355 364 364.5 386.5 Q374 409 374 452 L374 487 L459 487 Z "/>
<glyph glyph-name="uni06D3" unicode="ۓ" horiz-adv-x="656" d="M195 678 Q205 680 218 680 Q241 680 265 672 L265 631 Q247 636 230 636 Q223 636 217 635 Q198 633 188 618 Q178 604 178 583 Q178 563 191 547 Q207 528 234 528 L298 528 L298 511 L279 487 L110 487 L110 528 L154 528 Q133 555 133 593 Q133 622 146 644 Q161 670 195 678 Z M459 487 L459 452 Q459 398 445 363.5 Q431 329 397 303 Q362 276 281 243 Q196 208 170 190 Q123 161 123 125 Q124 99 140 85 Q156 71 183 71 L648 71 L648 43 L613 0 L173 0 Q109 0 72 40 Q43 72 42 117 Q42 153 60.5 185.5 Q79 218 113 240 Q147 262 233 297 Q302 326 329 345 Q355 364 364.5 386.5 Q374 409 374 452 L374 487 L459 487 Z "/>
<glyph glyph-name="uni06D4" unicode="۔" horiz-adv-x="161" d="M164 71 L164 0 L-4 0 L-4 71 L164 71 Z "/>
<glyph glyph-name="uni06F0" unicode="۰" horiz-adv-x="252" d="M128 325 L208 245 L208 209 L130 129 L32 226 L128 325 Z "/>
<glyph glyph-name="uni06F1" unicode="۱" horiz-adv-x="269" d="M177 674 L177 35 L134 0 L92 0 L92 674 L177 674 Z "/>
<glyph glyph-name="uni06F2" unicode="۲" horiz-adv-x="532" d="M308 686 Q314 686 318 686 Q396 686 463 661 L463 585 Q396 608 339 608 Q288 608 252 590 Q177 554 177 456 L177 35 L134 0 L92 0 L92 460 Q92 557 137 614 Q175 661 241 678 Q271 686 308 686 Z "/>
<glyph glyph-name="uni06F3" unicode="۳" horiz-adv-x="748" d="M177 674 L177 413 Q213 400 258 400 Q317 399 340 422 Q359 441 359 482 L359 674 L435 674 L435 483 Q435 443 428 424 Q470 402 524 401 Q580 401 600 423 Q617 442 617 482 L617 674 L693 674 L693 488 Q693 438 681 406 Q670 378 648 359 Q608 325 540 325 Q499 325 456.5 336 Q414 347 394 363 Q344 325 284 325 Q235 324 177 341 L177 35 L134 0 L92 0 L92 674 L177 674 Z "/>
<glyph glyph-name="uni06F4" unicode="۴" horiz-adv-x="568" d="M343 668 Q367 673 393 673 Q428 673 462 664 L462 593 Q439 597 415 597 Q391 597 371 593 Q326 585 289 561 Q246 534 216 487 Q193 451 179 407 Q251 376 346 373 Q355 373 364 373 Q433 373 513 386 L513 359 L479 312 Q431 300 369 300 Q354 300 341 301 Q237 306 177 340 L177 40 L123 0 L92 0 L92 674 L177 674 L177 532 Q202 588 239 619 Q280 655 343 668 Z "/>
<glyph glyph-name="uni06F5" unicode="۵" horiz-adv-x="576" d="M292 47 L287 47 Q259 17 244 7 Q217 -12 181 -12 Q115 -12 79 45 Q57 79 50 132 Q46 162 46 192 Q46 236 54 280 Q71 369 122 454 Q163 525 231 592 L214 608 L229 665 L244 680 Q316 634 370 578 Q411 536 443 489 Q479 434 501 376 Q517 333 525 290 Q534 244 534 191 Q534 145 526 112 Q512 50 481 22 Q446 -12 395 -13 Q363 -14 333 7 Q311 22 292 47 Z M286 116 L295 116 Q328 73 360 73 Q402 73 425 107 Q449 143 449 208 Q449 241 443 281 Q430 353 397 413 Q357 488 290 540 Q264 527 231.5 486 Q199 445 174 394 Q149 340 139 287 Q131 244 131 206 Q131 163 141 133 Q162 72 219 72 Q252 72 286 116 Z "/>
<glyph glyph-name="uni06F6" unicode="۶" horiz-adv-x="502" d="M294 686 Q339 687 380 674 L380 603 Q350 608 321 609 Q294 609 275 604 Q243 596 222 575 Q190 544 189 491 Q188 425 228 396 Q257 376 298 376 Q300 376 303 377 Q392 399 465 402 L465 379 L415 318 Q354 312 303 287 Q247 259 206 209 Q150 141 123 35 L80 0 L30 0 Q46 128 103 219 Q148 290 209 325 Q166 337 138 375 Q102 422 100 486 Q100 491 100 497 Q100 572 137 618 Q192 684 294 686 Z "/>
<glyph glyph-name="uni06F7" unicode="۷" horiz-adv-x="506" d="M477 679 L342 121 Q331 77 318 48 Q303 18 284 6 Q275 0 274 0 L231 0 Q226 2 220 6 Q203 19 188 50 Q176 77 164 121 L30 679 L121 679 L253 84 L385 679 L477 679 Z "/>
<glyph glyph-name="uni06F8" unicode="۸" horiz-adv-x="506" d="M231 679 L274 679 L284 673 Q303 661 318 631 Q331 604 342 558 L477 0 L385 0 L253 595 L121 0 L30 0 L164 558 Q175 603 190 633 Q204 662 220 673 Q226 677 231 679 Z "/>
<glyph glyph-name="uni06F9" unicode="۹" horiz-adv-x="517" d="M252 686 Q334 686 387 639 Q444 588 444 496 L444 35 L401 0 L359 0 L359 288 L262 288 Q179 288 124 324 Q46 375 46 480 Q46 573 100 627 Q158 686 252 686 Z M252 610 Q195 610 161 574 Q130 540 131 488 Q132 432 164 400 Q200 364 273 364 L359 364 L359 499 Q359 549 330 580 Q300 610 252 610 Z "/>
<glyph glyph-name="Euro" unicode="€" horiz-adv-x="639" d="M414 683 Q481 683 532 647 L532 573 Q476 607 421 607 Q357 607 313 561 Q269 515 252 430 L451 430 L451 367 L245 367 Q243 358 243 336 Q243 310 245 294 L451 294 L451 231 L254 231 Q271 141 322 100 Q357 70 441 68 Q507 67 547 85 L547 47 L512 4 Q467 -9 417 -9 Q314 -9 249 56 Q187 117 168 231 L92 231 L92 294 L160 294 Q158 323 158 337 Q158 354 160 367 L92 367 L92 430 L166 430 Q182 546 246 614 Q311 683 414 683 Z "/>
<glyph glyph-name="uni2153" unicode="⅓" horiz-adv-x="694" d="M195 673 L195 290 L162 263 L129 263 L129 593 L50 535 L16 579 L136 673 L195 673 Z M556 673 L160 0 L87 0 L484 673 L556 673 Z M526 415 Q534 415 538 415 Q565 415 586 407 Q615 397 634 376 Q651 353 655 325 Q657 316 657 307 Q657 278 642 254 Q619 217 578 213 Q626 209 654 172 Q676 143 676 109 Q676 85 668 68 Q653 31 622 14 Q584 -5 523 -4 Q480 -3 451 7 L429 35 L429 58 Q476 43 512 43 Q558 42 584 62 Q608 77 608 107 Q608 144 573 169 Q535 194 479 194 L479 234 L521 234 Q552 234 569 249 Q594 272 594 305 Q594 338 571 352 Q555 362 531 364 Q526 364 524 364 Q494 364 455 355 L455 398 Q491 413 526 415 Z "/>
<glyph glyph-name="uni2154" unicode="⅔" horiz-adv-x="765" d="M125 675 Q141 678 157 678 Q175 678 195 674 Q247 662 265 608 Q271 586 271 565 Q271 557 270 547 Q263 504 216 447 Q201 431 129 354 L98 322 L278 322 L278 290 L255 264 L14 264 L14 321 L59 363 Q119 418 158 463 Q188 498 197 516 Q207 537 207 559 Q207 597 183 612 Q169 622 144 621 Q108 620 72 593 L38 636 Q83 667 125 675 Z M641 673 L245 0 L173 0 L569 673 L641 673 Z M597 415 Q605 415 609 415 Q636 415 657 407 Q686 397 705 376 Q722 353 726 325 Q728 316 728 307 Q728 278 713 254 Q690 217 649 213 Q697 209 725 172 Q747 143 747 109 Q747 85 739 68 Q724 31 693 14 Q655 -5 594 -4 Q551 -3 522 7 L500 35 L500 58 Q547 43 583 43 Q629 42 655 62 Q679 77 679 107 Q679 144 644 169 Q606 194 550 194 L550 234 L592 234 Q623 234 640 249 Q665 272 665 305 Q665 338 642 352 Q626 362 602 364 Q597 364 595 364 Q565 364 526 355 L526 398 Q562 413 597 415 Z "/>
<glyph glyph-name="oneeighth" unicode="⅛" horiz-adv-x="712" d="M195 673 L195 290 L162 263 L129 263 L129 593 L50 535 L16 579 L136 673 L195 673 Z M556 673 L160 0 L87 0 L484 673 L556 673 Z M548 412 Q602 412 637 387 Q669 364 669 318 Q669 284 648 256 Q637 241 589 209 Q637 190 662 163 Q691 132 691 94 Q690 55 659 27 Q621 -7 548 -7 Q486 -7 446 20 Q407 47 407 97 Q407 131 434 160 Q461 189 511 208 Q482 223 461 246 Q429 282 429 317 Q429 366 461 389 Q495 412 548 412 Z M549 367 Q518 367 503 351 Q489 336 489 314 Q489 290 502 271 Q522 245 551 232 Q580 247 596 272 Q609 291 609 316 Q609 339 594 352 Q579 367 549 367 Z M550 188 Q509 171 493 155 Q472 133 472 103 Q472 76 493 60.5 Q514 45 550 45 Q586 45 607 60 Q628 75 628 102 Q629 132 609 152 Q590 171 550 188 Z "/>
<glyph glyph-name="threeeighths" unicode="⅜" horiz-adv-x="770" d="M113 684 Q117 684 125 684 Q152 684 173 676 Q202 666 221 645 Q238 622 242 594 Q244 585 244 576 Q244 547 229 523 Q206 486 165 482 Q213 478 241 441 Q263 412 263 378 Q263 354 255 337 Q240 300 208 283 Q171 264 110 265 Q67 266 38 277 L16 304 L16 327 Q62 312 99 312 Q145 311 171 331 Q195 346 195 376 Q195 413 160 438 Q122 463 66 463 L66 503 L108 503 Q139 503 156 518 Q181 541 181 574 Q181 607 158 621 Q142 631 118 633 Q113 633 111 633 Q80 633 42 624 L42 667 Q78 682 113 684 Z M612 673 L216 0 L144 0 L540 673 L612 673 Z M606 412 Q660 412 695 387 Q727 364 727 318 Q727 284 706 256 Q694 241 646 209 Q694 190 720 163 Q749 132 749 94 Q748 55 717 27 Q679 -7 606 -7 Q544 -7 504 20 Q465 47 465 97 Q465 131 492 160 Q519 189 569 208 Q540 223 519 246 Q487 282 487 317 Q487 366 519 389 Q553 412 606 412 Z M607 367 Q576 367 561 351 Q547 336 547 314 Q547 290 560 271 Q579 245 609 232 Q638 247 654 272 Q667 291 667 316 Q667 339 652 352 Q637 367 607 367 Z M608 188 Q567 171 551 155 Q530 133 530 103 Q530 76 551 60.5 Q572 45 608 45 Q644 45 665 60 Q686 75 686 102 Q686 132 666 152 Q648 171 608 188 Z "/>
<glyph glyph-name="fiveeighths" unicode="⅝" horiz-adv-x="782" d="M243 673 L243 622 L89 622 L82 510 Q109 514 132 514 Q157 514 178 509 Q223 497 247 461 Q272 424 272 377 Q271 327 239 292 Q206 256 152 251 Q140 250 128 250 Q90 250 44 260 L17 294 L17 313 Q64 301 105 301 Q108 301 113 301 Q162 302 186 320 Q211 340 211 379 Q211 425 183 447 Q163 463 123 465 Q117 466 108 466 Q86 466 57 462 Q36 460 23 458 L36 673 L243 673 Z M626 673 L229 0 L157 0 L553 673 L626 673 Z M619 412 Q674 412 709 387 Q741 364 741 318 Q741 284 719 256 Q708 241 660 209 Q707 190 733 163 Q762 132 762 94 Q761 55 730 27 Q692 -7 619 -7 Q557 -7 517 20 Q478 47 478 97 Q478 132 505 160 Q531 189 582 208 Q553 224 532 246 Q501 282 501 317 Q501 366 533 389 Q567 412 619 412 Z M621 367 Q590 367 574 351 Q561 336 561 314 Q561 290 574 271 Q593 245 622 232 Q652 247 668 272 Q681 291 681 316 Q681 339 666 352 Q650 367 621 367 Z M621 188 Q580 171 564 155 Q543 133 543 103 Q543 76 563.5 60.5 Q584 45 620 45 Q656 45 677 60 Q698 75 698 102 Q698 131 678 152 Q660 171 621 188 Z "/>
<glyph glyph-name="seveneighths" unicode="⅞" horiz-adv-x="722" d="M559 673 L163 0 L90 0 L487 673 L559 673 Z M282 672 L282 623 L142 294 L99 259 L59 259 L214 615 L12 615 L12 672 L282 672 Z M559 412 Q614 412 648 387 Q680 364 680 318 Q680 284 659 256 Q648 241 600 209 Q648 190 673 163 Q702 132 702 94 Q701 55 670 27 Q632 -7 559 -7 Q497 -7 457 20 Q418 47 418 97 Q418 131 445 160 Q472 189 522 208 Q493 223 473 246 Q441 282 441 317 Q441 366 473 389 Q507 412 559 412 Z M561 367 Q530 367 515 351 Q501 336 501 314 Q501 290 514 271 Q533 245 562 232 Q591 247 607 272 Q620 291 620 316 Q620 339 605 352 Q590 367 561 367 Z M561 188 Q520 171 504 155 Q483 133 483 103 Q483 76 504 60.5 Q525 45 560 45 Q597 45 617.5 60 Q638 75 638 102 Q639 132 619 152 Q600 171 561 188 Z "/>
<glyph glyph-name="uni25CC" unicode="◌" horiz-adv-x="545" d="M271 511 Q281 511 288.5 503.5 Q296 496 296 486 Q296 476 288.5 468.5 Q281 461 271 461 Q261 461 253.5 468.5 Q246 476 246 486 Q246 496 253.5 503.5 Q261 511 271 511 Z M191 495 Q201 495 208.5 487.5 Q216 480 216 470 Q216 460 208.5 452.5 Q201 445 191 445 Q181 445 173.5 452.5 Q166 460 166 470 Q166 480 173.5 487.5 Q181 495 191 495 Z M352 495 Q362 495 369.5 487.5 Q377 480 377 470 Q377 460 369.5 452.5 Q362 445 352 445 Q342 445 334.5 452.5 Q327 460 327 470 Q327 480 334.5 487.5 Q342 495 352 495 Z M123 450 Q133 450 140.5 442.5 Q148 435 148 425 Q148 415 140.5 407.5 Q133 400 123 400 Q113 400 105.5 407.5 Q98 415 98 425 Q98 435 105.5 442.5 Q113 450 123 450 Z M420 450 Q430 450 437.5 442.5 Q445 435 445 425 Q445 415 437.5 407.5 Q430 400 420 400 Q410 400 402.5 407.5 Q395 415 395 425 Q395 435 402.5 442.5 Q410 450 420 450 Z M78 381 Q88 381 95.5 373.5 Q103 366 103 356 Q103 346 95.5 338.5 Q88 331 78 331 Q68 331 60.5 338.5 Q53 346 53 356 Q53 366 60.5 373.5 Q68 381 78 381 Z M464 381 Q474 381 481.5 373.5 Q489 366 489 356 Q489 346 481.5 338.5 Q474 331 464 331 Q454 331 446.5 338.5 Q439 346 439 356 Q439 366 446.5 373.5 Q454 381 464 381 Z M62 301 Q72 301 79.5 293.5 Q87 286 87 276 Q87 266 79.5 258.5 Q72 251 62 251 Q52 251 44.5 258.5 Q37 266 37 276 Q37 286 44.5 293.5 Q52 301 62 301 Z M483 299 Q493 299 500.5 291.5 Q508 284 508 274 Q508 264 500.5 256.5 Q493 249 483 249 Q473 249 465.5 256.5 Q458 264 458 274 Q458 284 465.5 291.5 Q473 299 483 299 Z M78 222 Q88 222 95.5 214.5 Q103 207 103 197 Q103 187 95.5 179.5 Q88 172 78 172 Q68 172 60.5 179.5 Q53 187 53 197 Q53 207 60.5 214.5 Q68 222 78 222 Z M464 218 Q474 218 481.5 210.5 Q489 203 489 193 Q489 183 481.5 175.5 Q474 168 464 168 Q454 168 446.5 175.5 Q439 183 439 193 Q439 203 446.5 210.5 Q454 218 464 218 Z M123 153 Q133 153 140.5 145.5 Q148 138 148 128 Q148 118 140.5 110.5 Q133 103 123 103 Q113 103 105.5 110.5 Q98 118 98 128 Q98 138 105.5 145.5 Q113 153 123 153 Z M420 149 Q430 149 437.5 141.5 Q445 134 445 124 Q445 114 437.5 106.5 Q430 99 420 99 Q410 99 402.5 106.5 Q395 114 395 124 Q395 134 402.5 141.5 Q410 149 420 149 Z M191 104 Q201 104 208.5 96.5 Q216 89 216 79 Q216 69 208.5 61.5 Q201 54 191 54 Q181 54 173.5 61.5 Q166 69 166 79 Q166 89 173.5 96.5 Q181 104 191 104 Z M352 104 Q362 104 369.5 96.5 Q377 89 377 79 Q377 69 369.5 61.5 Q362 54 352 54 Q342 54 334.5 61.5 Q327 69 327 79 Q327 89 334.5 96.5 Q342 104 352 104 Z M271 88 Q281 88 288.5 80.5 Q296 73 296 63 Q296 53 288.5 45.5 Q281 38 271 38 Q261 38 253.5 45.5 Q246 53 246 63 Q246 73 253.5 80.5 Q261 88 271 88 Z "/>
<glyph glyph-name="uniE002" unicode="" horiz-adv-x="666" d="M272 803 Q281 804 289 804 Q316 804 336 791 Q356 778 363 755 Q366 746 366 736 Q366 697 327 672 Q301 655 260 655 Q232 655 200 663 Q188 666 161 676 Q127 688 117 687 Q91 685 60 657 L37 674 Q72 733 117 735 Q121 735 122 735 Q144 735 171 723 Q192 756 216 776 Q243 797 272 803 Z M280 764 Q261 760 246 750 Q228 737 210 711 Q250 698 275 698 Q286 698 296 700 Q310 704 319 713.5 Q328 723 328 734 Q328 739 326 743 Q318 765 290 765 Q285 765 280 764 Z M597 716 L597 94 Q597 60 576 34 Q549 0 507 0 L70 0 L35 43 L35 71 L303 71 L130 593 L216 593 L388 71 L474 71 Q492 71 504 84 Q512 94 512 109 L512 716 L597 716 Z "/>
<glyph glyph-name="uniE003" unicode="" horiz-adv-x="644" d="M273 803 Q282 804 290 804 Q317 804 337 791 Q357 778 364 755 Q367 746 367 736 Q367 697 328 672 Q302 655 261 655 Q233 655 201 663 Q189 666 162 676 Q128 688 118 687 Q92 685 61 657 L38 674 Q73 733 118 735 Q122 735 123 735 Q145 735 172 723 Q193 756 217 776 Q244 797 273 803 Z M281 764 Q262 760 247 750 Q229 737 211 711 Q251 698 276 698 Q287 698 297 700 Q311 704 320 713.5 Q329 723 329 734 Q329 739 327 743 Q319 765 291 765 Q286 765 281 764 Z M598 716 L598 94 Q598 81 595 71 L648 71 L648 0 L609 0 L581 35 L578 35 Q564 18 546 9 Q527 0 508 0 L71 0 L36 43 L36 71 L304 71 L131 593 L217 593 L389 71 L475 71 Q493 71 503 83 Q513 93 513 109 L513 716 L598 716 Z "/>
<glyph glyph-name="uniE004" unicode="" d="M332 725 Q335 715 335 706 Q335 668 296 641 Q270 625 229 625 Q201 625 169 633 Q158 636 130 645 Q96 657 86 656 Q60 655 29 626 L6 644 Q41 703 86 704 Q89 704 91 704 Q113 704 139 693 Q161 726 185 746 Q212 767 241 772 Q249 774 258 774 Q285 774 305 761 Q325 748 332 725 Z M249 734 Q230 730 215 719 Q197 707 179 681 Q218 668 244 668 Q255 668 265 670 Q279 674 288 683.5 Q297 693 297 704 Q297 709 295 713 Q287 735 259 735 Q254 735 249 734 Z "/>
<glyph glyph-name="uniE005" unicode="" d="M144 935 L144 745 L122 727 L100 727 L100 935 L144 935 Z M244 688 L244 578 Q244 559 232 546 Q219 531 197 531 L150 531 L137 545 L136 545 Q133 541 128 537 Q118 531 107 531 L47 531 Q26 531 13 545 Q0 558 0 578 L0 646 L22 664 L43 664 L43 580 Q43 575 46 572 Q50 566 57 566 L86 566 Q92 566 96 570 Q100 574 100 580 L100 664 L144 664 L144 566 L187 566 Q194 566 197 571 Q201 574 201 580 L201 688 L244 688 Z "/>
<glyph glyph-name="uniE006" unicode="" d="M163 951 Q195 950 214 928.5 Q233 907 233 874 Q233 841 212 816 Q191 791 152 779 L30 745 L12 766 L12 783 L110 810 Q79 834 79 874 Q79 877 80 880 Q82 913 103.5 932.5 Q125 952 159 952 Q161 952 163 951 Z M157 913 Q123 914 123 873 Q123 857 133 843.5 Q143 830 157 825 Q171 833 180 846 Q189 859 189 872 Q190 912 157 913 Z M244 682 L244 572 Q244 553 232 540 Q219 525 197 525 L150 525 L137 539 L136 539 Q133 535 128 531 Q118 525 107 525 L47 525 Q26 525 13 539 Q0 551 0 572 L0 640 L22 658 L43 658 L43 574 Q43 569 46 566 Q51 560 57 560 L86 560 Q92 560 96 564 Q100 569 100 574 L100 658 L144 658 L144 560 L187 560 Q194 560 197 565 Q201 568 201 574 L201 682 L244 682 Z "/>
<glyph glyph-name="uniE007" unicode="" d="M257 941 Q284 940 303 923 Q322 906 326 880 Q327 873 327 865 Q327 839 313 814 Q297 786 265 768 Q229 748 187 749 Q125 750 83 795 L43 759 L12 762 L0 774 L92 856 Q106 827 132.5 809.5 Q159 792 188 792 Q200 792 211 796 Q173 819 173 864 Q173 867 174 869 Q176 902 197.5 921.5 Q219 941 252 941 Q254 941 257 941 Z M251 903 Q217 904 217 863 Q217 848 227.5 833 Q238 818 253 814 Q266 822 274.5 836 Q283 850 283 862 Q284 902 251 903 Z M294 682 L294 572 Q294 553 282 540 Q269 525 247 525 L200 525 L187 539 L186 539 Q183 535 178 531 Q168 525 157 525 L97 525 Q76 525 63 539 Q50 551 50 572 L50 640 L71 658 L93 658 L93 574 Q93 569 96 566 Q101 560 107 560 L136 560 Q142 560 146 564 Q150 569 150 574 L150 658 L194 658 L194 560 L237 560 Q243 560 247 565 Q251 568 251 574 L251 682 L294 682 Z "/>
<glyph glyph-name="uniE008" unicode="" d="M230 843 L230 800 L31 745 L14 766 L14 783 L230 843 Z M244 682 L244 572 Q244 553 232 540 Q219 525 197 525 L150 525 L137 539 L136 539 Q133 535 128 531 Q118 525 107 525 L47 525 Q26 525 13 539 Q0 551 0 572 L0 640 L22 658 L43 658 L43 574 Q43 569 46 566 Q51 560 57 560 L86 560 Q92 560 96 564 Q100 569 100 574 L100 658 L144 658 L144 560 L187 560 Q194 560 197 565 Q201 568 201 574 L201 682 L244 682 Z "/>
<glyph glyph-name="uniE009" unicode="" d="M232 935 L232 892 L22 834 L5 855 L5 872 L232 935 Z M230 843 L230 800 L31 745 L14 766 L14 783 L230 843 Z M244 682 L244 572 Q244 553 232 540 Q219 525 197 525 L150 525 L137 539 L136 539 Q133 535 128 531 Q118 525 107 525 L47 525 Q26 525 13 539 Q0 551 0 572 L0 640 L22 658 L43 658 L43 574 Q43 569 46 566 Q51 560 57 560 L86 560 Q92 560 96 564 Q100 569 100 574 L100 658 L144 658 L144 560 L187 560 Q194 560 197 565 Q201 568 201 574 L201 682 L244 682 Z "/>
<glyph glyph-name="uniE00A" unicode="" d="M244 842 L244 732 Q244 713 232 700 Q219 685 197 685 L150 685 L137 699 L136 699 Q133 695 128 691 Q118 685 107 685 L47 685 Q26 685 13 699 Q0 711 0 732 L0 800 L22 818 L43 818 L43 734 Q43 729 46 726 Q51 720 57 720 L86 720 Q92 720 96 724 Q100 729 100 734 L100 818 L144 818 L144 720 L187 720 Q194 720 197 725 Q201 728 201 734 L201 842 L244 842 Z M230 576 L31 521 L14 543 L14 560 L230 620 L230 576 Z "/>
<glyph glyph-name="uniE00B" unicode="" d="M244 951 L244 841 Q244 822 232 809 Q219 794 197 794 L150 794 L137 808 L136 808 Q133 804 128 800 Q118 794 107 794 L47 794 Q26 794 13 808 Q0 820 0 841 L0 909 L22 927 L43 927 L43 843 Q43 838 46 835 Q51 829 57 829 L86 829 Q92 829 96 833 Q100 837 100 843 L100 927 L144 927 L144 829 L187 829 Q194 829 197 834 Q201 837 201 843 L201 951 L244 951 Z M231 688 L32 633 L15 655 L15 672 L231 732 L231 688 Z M231 596 L32 541 L15 563 L15 580 L231 639 L231 596 Z "/>
<glyph glyph-name="uniE00C" unicode="" d="M50 99 Q70 99 84.5 84.5 Q99 70 99 50 Q99 29 84.5 14.5 Q70 0 50 0 Q29 0 14.5 14.5 Q0 29 0 50 Q0 70 14.5 84.5 Q29 99 50 99 Z "/>
<glyph glyph-name="uniE00F" unicode="" horiz-adv-x="1656" d="M711 716 L711 9 Q711 -111 638 -176 Q567 -239 445 -239 L335 -239 Q216 -239 145 -178 Q69 -113 69 9 L69 218 L112 253 L154 253 L154 11 Q154 -78 198 -120 Q230 -152 298 -164 Q323 -168 390 -168 Q458 -168 483 -164 Q550 -152 583 -120 Q626 -78 626 11 L626 716 L711 716 Z M957 716 L957 109 Q957 92 967 82 Q978 71 995 71 L1143 71 Q1160 71 1172 83 Q1181 93 1181 109 L1181 460 L1266 460 L1266 94 Q1266 58 1242 31 Q1215 0 1176 0 L962 0 Q930 0 906 21 Q872 50 872 94 L872 716 L957 716 Z M1587 460 L1587 9 Q1587 -102 1524 -166 Q1475 -216 1392 -232 Q1361 -238 1322 -238 Q1296 -238 1276 -237 L1243 -196 L1243 -164 Q1273 -168 1306 -168 Q1338 -168 1359 -164 Q1434 -151 1467 -111 Q1502 -69 1502 12 L1502 460 L1587 460 Z M1010 -104 Q1031 -104 1045.5 -118.5 Q1060 -133 1060 -154 Q1060 -174 1045.5 -188.5 Q1031 -203 1010 -203 Q990 -203 975.5 -188.5 Q961 -174 961 -154 Q961 -133 975.5 -118.5 Q990 -104 1010 -104 Z M1131 -104 Q1152 -104 1166.5 -118.5 Q1181 -133 1181 -154 Q1181 -174 1166.5 -188.5 Q1152 -203 1131 -203 Q1111 -203 1096.5 -188.5 Q1082 -174 1082 -154 Q1082 -133 1096.5 -118.5 Q1111 -104 1131 -104 Z "/>
<glyph glyph-name="uniE010" unicode="" horiz-adv-x="618" d="M316 685 Q309 686 309 697 Q309 705 312 710 L314 710 Q313 706 313 702 Q313 695 318 693 L319 693 Q322 693 323 695 Q323 697 323 700 Q323 704 323 710 L326 713 L327 713 Q329 706 329 696 Q330 694 332 694 Q335 694 336 696 Q337 697 337 698 Q337 700 336 704 Q333 709 333 711 Q333 715 336 717 Q337 714 339 709 Q342 703 342 700 Q342 699 342 698 Q341 687 331 687 Q327 687 324 690 Q321 684 316 685 Z M217 659 L213 662 Q248 677 254 688 Q243 695 242 701 Q242 706 247 710.5 Q252 715 258 715 Q261 715 263 714 Q266 712 266 705 Q266 698 263 692 L270 689 L267 683 Q265 684 259 686 Q248 672 217 659 Z M500 243 Q519 246 569 270 L572 268 L564 234 Q519 205 463 205 Q410 205 395 236 Q386 207 360 207 Q334 207 326 234 Q300 207 283.5 197 Q267 187 248 187 Q238 187 227 190 L227 146 Q227 110 267 110 Q274 110 281 111 Q325 118 411 151 Q461 170 472 170 Q491 170 491 151 Q491 149 491 147 Q485 115 453 92 L449 98 Q473 118 473 133 Q473 135 473 137 Q471 140 466 140 Q461 140 453 138 L350 101 Q292 81 262 82 Q240 83 228 96 Q231 68 240 57 Q276 41 276 37 Q276 36 275 33 Q268 15 263 14 Q258 13 245 20 Q226 30 210 30 Q202 30 195 28 Q182 25 154 9 Q115 -12 97 -12 Q77 -12 64 8.5 Q51 29 52 58 Q54 90 71 115 Q88 140 115 149 L117 149 L118 144 Q97 137 81.5 111.5 Q66 86 66 59 Q66 16 96 16 Q119 16 161 39 Q194 58 212 61 Q207 78 207 109 L207 197 Q185 211 170 245 Q167 243 156 224 Q118 162 93 162 Q73 162 60 182.5 Q47 203 48 233 Q50 264 67 289.5 Q84 315 111 324 L112 324 L114 319 Q94 312 78 286 Q62 260 62 233 Q62 190 92 190 Q113 190 134 222 L156 256 Q167 272 175 272 Q177 272 179 271 Q184 269 191 254 Q200 237 207 230 L207 346 L151 345 Q104 345 84 351 Q64 357 55 374 Q52 378 52 385 Q52 400 63 415.5 Q74 431 90 439 L140 462 Q162 475 162 497 L161 685 Q161 689 167 698.5 Q173 708 179 714 L180 714 L181 494 Q181 461 207 444 L207 483 Q207 498 227 511 L228 511 Q229 510 229 436 Q244 434 245 434 Q317 434 386 466 L386 490 Q386 504 405 517 L406 517 L407 476 Q427 486 434 486 Q439 486 439 480 Q439 476 438 470 Q436 465 436 460 Q436 446 450 439 Q480 510 523 514 Q525 514 526 514 Q544 514 557 501.5 Q570 489 570 472 Q570 465 568 456 Q559 435 531.5 420 Q504 405 473 405 Q458 405 447 409 L435 393 L432 393 Q433 404 437 415 Q421 429 417 455 L407 448 L407 379 L531 382 Q574 382 574 355 Q574 343 564 329 L561 331 Q561 333 561 334 Q561 353 531 353 L407 350 L407 282 Q407 238 467 238 Q453 259 453 279 Q453 287 456 295 Q461 313 475 324.5 Q489 336 504 336 Q531 336 560 313 L557 304 Q539 308 523 308 Q488 308 472 284 Q473 275 482 262 Q491 249 500 243 Z M452 515 L448 515 L443 684 Q440 687 440 690 Q440 691 441 693 Q446 709 451 714 L454 714 Q462 702 468 682.5 Q474 663 473 653 L472 653 L462 663 L466 551 Q466 526 452 515 Z M247 703 Q250 700 257 695 Q259 699 259 702 Q259 705 257 706 Q256 707 255 707 Q252 707 247 703 Z M230 530 Q218 530 211 547 Q204 564 204 592 Q204 610 208 626 L209 626 L210 622 Q209 614 209 607 Q209 556 229 556 Q237 556 241.5 565.5 Q246 575 253 606 Q263 651 277 651 Q282 651 282 640 Q282 632 280 617 Q277 603 277 592 Q277 557 295 556 Q313 555 327 580 Q330 593 330 612 Q330 637 325 656 Q326 660 331.5 668.5 Q337 677 340 680 L341 680 Q348 663 348 593 Q348 584 349 578 Q350 556 374 556 Q397 556 406 577 Q406 589 395 622 Q386 646 384 657 Q381 659 381 662 Q381 666 390 682 L393 682 L396 677 Q415 655 416 649 L415 647 L406 651 L422 585 Q422 579 421 573 Q418 555 405.5 542.5 Q393 530 377 530 Q362 530 350 539.5 Q338 549 334 563 Q323 529 296 529 Q264 529 264 588 Q264 601 266 618 Q264 612 259 588 Q247 530 230 530 Z M251 459 L257 471 Q339 502 374 509 L368 497 Q339 492 303 479 L251 459 Z M547 460 Q541 485 523 485 Q511 485 494.5 471.5 Q478 458 466 436 Q472 435 478 435 Q497 435 516.5 442 Q536 449 547 460 Z M207 375 L207 410 Q172 421 164 456 Q151 437 109 422 Q74 410 70 397 Q74 384 96 379 Q118 374 169 374 L207 375 Z M229 406 L229 375 L386 379 L386 437 Q320 406 244 406 Q234 406 229 406 Z M387 253 Q389 261 389 306 Q389 323 389 350 L227 346 L227 219 Q238 213 249 213 Q283 213 325 261 Q331 268 335 268 Q339 268 342 260 L346 250 Q353 239 366 239 Q380 239 387 253 Z M252 269 L258 280 Q342 311 375 318 L368 306 Q340 302 303 288 L252 269 Z M126 309 L129 309 Q122 292 122 281 Q122 270 127 269 L128 269 Q132 269 135 276 L136 276 Q136 275 136 274 Q136 265 131.5 259 Q127 253 122 254 Q112 256 112 272 Q112 294 126 309 Z M340 175 L354 189 L375 170 L354 148 L340 163 L325 148 L306 170 L325 189 L340 175 Z M536 165 Q552 165 561.5 150 Q571 135 571 111 Q571 75 550 43 Q533 19 509 3.5 Q485 -12 463 -12 Q459 -12 456 -12 Q437 -9 426 4.5 Q415 18 415 37 Q415 69 441 91 L445 85 Q430 73 430 55 Q430 42 437 31.5 Q444 21 454 19 Q459 18 464 18 Q488 18 512.5 37 Q537 56 551 85 Q547 88 531 90 Q516 93 511 95 Q497 102 497 116 Q497 124 502 135 Q514 165 536 165 Z M517 126 Q517 122 535 119 Q547 117 553 116 Q542 136 532 137 Q527 137 522 134 Q517 131 517 126 Z M117 93 Q111 93 111 102 Q111 112 120 112 Q127 112 133 101 Q137 117 147 117 Q155 117 155 109 Q155 103 152 98 L151 98 Q150 103 147 104 Q139 104 138 77 L136 75 Q136 82 131.5 89 Q127 96 123 96 Q120 93 117 93 Z M335 51 L335 53 Q339 51 346 51 Q356 51 365 58 Q353 65 346 65 Q343 65 341 63 L339 64 Q339 68 343.5 72 Q348 76 352 76 Q353 76 354 76 L377 69 Q383 68 383 67 Q383 66 382 64 Q374 45 352 45 Q343 45 335 51 Z M386 22 L394 29 Q399 23 399 14 Q399 11 399 10 Q397 -1 386 -1 Q379 -1 376 5 Q371 -1 365 -1 Q357 -1 354 5 Q342 -2 319 -2 Q306 -2 292 0 L292 2 Q300 2 303 2 Q346 2 358 19 L360 19 Q360 10 366 10 Q374 10 375 21 L376 21 Q378 10 387 10 Q388 10 390 10 Q390 19 386 22 Z "/>
<glyph glyph-name="uniE015" unicode="" horiz-adv-x="669" d="M154 174 L154 11 Q154 -56 178 -96 Q210 -149 298 -164 Q321 -168 387 -168 Q456 -168 483 -164 Q547 -153 580 -123 Q623 -82 626 0 L550 0 L515 43 L515 71 L738 71 L738 0 L711 0 Q708 -121 628 -184 Q558 -239 446 -239 L335 -239 Q210 -239 138 -172 Q69 -107 69 9 L69 139 L112 174 L154 174 Z "/>
<glyph glyph-name="uniE016" unicode="" horiz-adv-x="669" d="M154 174 L154 11 Q154 -56 178 -96 Q210 -149 298 -164 Q321 -168 387 -168 Q456 -168 483 -164 Q547 -153 580 -123 Q623 -82 626 0 L550 0 L515 43 L515 71 L738 71 L738 0 L711 0 Q708 -121 628 -184 Q558 -239 446 -239 L335 -239 Q210 -239 138 -172 Q69 -107 69 9 L69 139 L112 174 L154 174 Z M330 -298 Q350 -298 364.5 -312.5 Q379 -327 379 -347 Q379 -367 364.5 -381.5 Q350 -396 330 -396 Q309 -396 294.5 -381.5 Q280 -367 280 -347 Q280 -327 294.5 -312.5 Q309 -298 330 -298 Z M451 -298 Q471 -298 485.5 -312.5 Q500 -327 500 -347 Q500 -367 485.5 -381.5 Q471 -396 451 -396 Q430 -396 415.5 -381.5 Q401 -367 401 -347 Q401 -327 415.5 -312.5 Q430 -298 451 -298 Z "/>
<glyph glyph-name="uniE017" unicode="" horiz-adv-x="687" d="M153 471 Q164 473 176 473 Q199 473 224 465 L224 424 Q206 429 189 429 Q182 429 175 428 Q157 426 147 411 Q137 397 137 376 Q137 356 149 340 Q165 321 193 321 L257 321 L257 304 L237 280 L69 280 L69 321 L113 321 Q92 348 92 386 Q92 415 104 437 Q120 463 153 471 Z M177 174 L177 11 Q177 -56 201 -96 Q233 -149 321 -164 Q344 -168 410 -168 Q479 -168 506 -164 Q570 -153 603 -123 Q646 -82 649 0 L572 0 L537 43 L537 71 L756 71 L756 0 L734 0 Q731 -121 651 -184 Q581 -239 468 -239 L357 -239 Q233 -239 161 -172 Q92 -107 92 9 L92 139 L135 174 L177 174 Z "/>
<glyph glyph-name="uniE018" unicode="" horiz-adv-x="935" d="M888 460 L888 94 Q888 82 885 71 L939 71 L939 0 L903 0 L871 35 L868 35 Q840 0 798 0 L225 0 Q170 0 126 37 Q69 85 69 165 L69 353 L112 388 L154 388 L154 165 Q154 126 181 99 Q210 71 250 71 L765 71 Q783 71 794 83 Q803 93 803 109 L803 460 L888 460 Z "/>
<glyph glyph-name="uniE019" unicode="" horiz-adv-x="308" d="M261 460 L261 94 Q261 82 258 71 L311 71 L311 0 L272 0 L244 35 L241 35 Q213 0 171 0 L-4 0 L-4 71 L138 71 Q154 71 164 81 Q176 91 176 109 L176 460 L261 460 Z "/>
<glyph glyph-name="uniE01C" unicode="" d="M244 951 L244 841 Q244 822 232 809 Q219 794 197 794 L150 794 L137 808 L136 808 Q133 804 128 800 Q118 794 107 794 L47 794 Q26 794 13 808 Q0 820 0 841 L0 909 L22 927 L43 927 L43 843 Q43 838 46 835 Q51 829 57 829 L86 829 Q92 829 96 833 Q100 837 100 843 L100 927 L144 927 L144 829 L187 829 Q194 829 197 834 Q201 837 201 843 L201 951 L244 951 Z M231 688 L32 633 L15 655 L15 672 L231 732 L231 688 Z M231 596 L32 541 L15 563 L15 580 L231 639 L231 596 Z "/>
<glyph glyph-name="uniE01F" unicode="" horiz-adv-x="715" d="M149 673 L192 673 Q205 673 229 654.5 Q253 636 269 613 Q306 560 316 481 Q317 469 317 456 Q318 388 287 346 Q269 323 241 310 Q211 297 172 297 Q136 297 107 308 Q77 320 58 345 Q25 387 27 457 Q27 465 29 484 Q40 573 83 626 Q97 644 118 658.5 Q139 673 149 673 Z M610 673 L214 0 L141 0 L538 673 L610 673 Z M177 624 L167 624 Q134 611 113 568 Q89 518 89 458 Q88 405 107 380 Q130 349 172 349 Q205 349 224 366 Q254 390 255 456 Q255 515 231 565 Q210 611 177 624 Z M540 403 L563 403 Q579 400 594 373 Q608 349 615 319 L692 0 L627 0 L552 334 L477 0 L412 0 L488 319 Q496 351 509 373 Q523 400 540 403 Z "/>
<glyph glyph-name="uniE020" unicode="" horiz-adv-x="589" d="M492 673 L95 0 L23 0 L419 673 L492 673 Z M132 673 L132 294 L102 270 L66 270 L66 673 L132 673 Z M421 403 L444 403 Q461 400 475 373 Q490 349 497 319 L573 0 L508 0 L433 334 L358 0 L293 0 L370 319 Q378 351 390 373 Q405 400 421 403 Z "/>
<glyph glyph-name="uniE021" unicode="" horiz-adv-x="641" d="M492 673 L95 0 L23 0 L419 673 L492 673 Z M132 673 L132 294 L102 270 L66 270 L66 673 L132 673 Z M504 413 Q564 414 614 395 L614 338 Q568 354 530 354 Q497 354 472 341 Q420 317 420 249 L420 24 L390 0 L354 0 L354 256 Q354 323 385 363 Q411 396 457 407 Q475 412 504 413 Z "/>
<glyph glyph-name="uniE022" unicode="" horiz-adv-x="611" d="M492 673 L95 0 L23 0 L419 673 L492 673 Z M132 673 L132 294 L102 270 L66 270 L66 673 L132 673 Z M492 419 Q533 420 568 404 L568 358 Q543 368 514 368 Q505 368 496 367 Q467 363 450.5 347 Q434 331 434 306 Q434 277 455 261 Q476 245 513 245 L560 245 L560 220 L533 192 L517 192 Q481 192 454 174 Q420 151 420 118 Q420 90 438 75 Q457 58 496 58 L591 58 L591 34 L563 0 L484 0 Q425 0 389 26 Q348 56 348 109 Q348 148 374 178 Q393 200 418 211 Q397 225 386 244 Q368 272 368 307 Q368 309 368 312 Q369 351 392 378 Q427 418 492 419 Z "/>
<glyph glyph-name="uniE023" unicode="" horiz-adv-x="827" d="M492 673 L95 0 L23 0 L419 673 L492 673 Z M132 673 L132 294 L102 270 L66 270 L66 673 L132 673 Z M463 405 L463 258 Q484 254 501 254 Q543 254 558 271 Q571 285 571 316 L571 404 L629 404 L629 312 Q628 292 623 270 Q654 256 685 255 Q721 255 735 271 Q749 286 749 317 L749 404 L806 404 L806 313 Q806 278 798 257 Q790 238 775 224 Q748 201 701 201 Q637 201 600 227 Q566 201 524 201 Q498 201 463 208 L463 24 L433 0 L397 0 L397 405 L463 405 Z "/>
<glyph glyph-name="uniE024" unicode="" horiz-adv-x="668" d="M305 675 L228 356 Q221 326 207 302 Q192 275 176 272 L153 272 Q137 275 122 302 Q110 324 101 356 L25 675 L90 675 L165 341 L240 675 L305 675 Z M570 673 L174 0 L102 0 L498 673 L570 673 Z M500 403 L523 403 Q539 400 554 373 Q568 349 576 319 L652 0 L587 0 L512 334 L437 0 L372 0 L448 319 Q457 351 469 373 Q484 400 500 403 Z "/>
<glyph glyph-name="uniE025" unicode="" horiz-adv-x="765" d="M112 675 L112 528 Q134 524 150 524 Q192 524 207 541 Q220 554 220 586 L220 674 L278 674 L278 581 Q277 562 272 540 Q303 526 334 525 Q370 525 384 541 Q398 556 398 587 L398 674 L455 674 L455 583 Q455 548 447 527 Q439 507 424 494 Q397 471 350 471 Q286 471 249 497 Q215 471 173 471 Q147 470 112 478 L112 294 L82 270 L46 270 L46 675 L112 675 Z M662 673 L266 0 L194 0 L590 673 L662 673 Z M592 403 L615 403 Q631 400 646 373 Q660 349 667 319 L744 0 L679 0 L604 334 L529 0 L464 0 L540 319 Q549 351 561 373 Q576 400 592 403 Z "/>
<glyph glyph-name="uniE026" unicode="" horiz-adv-x="768" d="M112 675 L112 528 Q134 524 150 524 Q192 524 207 541 Q220 554 220 586 L220 674 L278 674 L278 581 Q277 562 272 540 Q303 526 334 525 Q370 525 384 541 Q398 556 398 587 L398 674 L455 674 L455 583 Q455 548 447 527 Q439 507 424 494 Q397 471 350 471 Q286 471 249 497 Q215 471 173 471 Q147 470 112 478 L112 294 L82 270 L46 270 L46 675 L112 675 Z M649 673 L252 0 L180 0 L576 673 L649 673 Z M649 419 Q690 420 725 404 L725 358 Q700 368 671 368 Q662 368 653 367 Q624 363 607.5 347 Q591 331 591 306 Q591 277 612 261 Q633 245 670 245 L717 245 L717 220 L690 192 L674 192 Q638 192 611 174 Q577 151 577 118 Q577 90 595 75 Q614 58 653 58 L748 58 L748 34 L720 0 L641 0 Q582 0 546 26 Q505 56 505 109 Q505 148 531 178 Q550 200 574 211 Q555 226 543 244 Q525 272 525 307 Q525 309 525 312 Q526 351 549 378 Q584 418 649 419 Z "/>
<glyph glyph-name="uniE027" unicode="" horiz-adv-x="847" d="M201 682 Q260 684 311 664 L311 607 Q265 623 227 623 Q194 623 169 610 Q117 586 117 518 L117 293 L87 269 L51 269 L51 525 Q51 592 82 632 Q108 665 154 676 Q172 681 201 682 Z M515 673 L118 0 L46 0 L442 673 L515 673 Z M486 405 L486 258 Q507 254 524 254 Q565 254 580 271 Q593 285 593 316 L593 404 L651 404 L651 312 Q650 292 645 270 Q676 256 708 255 Q744 255 758 271 Q772 286 772 317 L772 404 L829 404 L829 313 Q829 278 821 257 Q813 238 798 224 Q771 201 723 201 Q659 201 622 227 Q588 201 546 201 Q520 201 486 208 L486 24 L456 0 L420 0 L420 405 L486 405 Z "/>
<glyph glyph-name="uniE028" unicode="" d="M50 99 Q70 99 84.5 84.5 Q99 70 99 50 Q99 29 84.5 14.5 Q70 0 50 0 Q29 0 14.5 14.5 Q0 29 0 50 Q0 70 14.5 84.5 Q29 99 50 99 Z "/>
<glyph glyph-name="uniE030" unicode="" horiz-adv-x="935" d="M888 460 L888 94 Q888 82 885 71 L939 71 L939 0 L903 0 L871 35 L868 35 Q840 0 798 0 L225 0 Q170 0 126 37 Q69 85 69 165 L69 353 L112 388 L154 388 L154 165 Q154 126 181 99 Q210 71 250 71 L765 71 Q783 71 794 83 Q803 93 803 109 L803 460 L888 460 Z "/>
<glyph glyph-name="uniE031" unicode="" horiz-adv-x="308" d="M261 460 L261 94 Q261 82 258 71 L311 71 L311 0 L272 0 L244 35 L241 35 Q213 0 171 0 L-4 0 L-4 71 L138 71 Q154 71 164 81 Q176 91 176 109 L176 460 L261 460 Z "/>
<glyph glyph-name="uniE032" unicode="" horiz-adv-x="330" d="M261 460 L261 94 Q261 58 237 31 Q210 0 171 0 L-4 0 L-4 71 L138 71 Q155 71 167 83 Q176 93 176 109 L176 460 L261 460 Z "/>
<glyph glyph-name="uniE033" unicode="" horiz-adv-x="961" d="M724 472 Q814 472 874 414 Q940 348 940 241 Q940 194 923 148.5 Q906 103 877 71 L964 71 L964 0 L820 0 Q750 0 726 8 L722 8 Q698 0 627 0 L225 0 Q166 0 122 41 Q69 90 69 165 L69 353 L112 388 L154 388 L154 165 Q154 126 180 100 Q208 71 250 71 L572 71 Q543 102 526 148 Q509 194 509 241 Q509 338 562 401 Q623 472 724 472 Z M724 401 Q661 401 627 355 Q595 313 595 238 Q596 167 634 119 Q670 73 724 71 Q788 74 826 134 Q854 181 854 238 Q855 329 806 372 Q774 401 724 401 Z "/>
<glyph glyph-name="uniE034" unicode="" horiz-adv-x="602" d="M365 471 Q446 471 503 423 Q581 359 581 241 Q581 195 564 149 Q547 103 518 71 L605 71 L605 0 L461 0 Q391 0 367 8 L363 8 Q339 0 268 0 L-4 0 L-4 71 L213 71 Q184 103 167 148.5 Q150 194 150 241 Q150 337 203 400 Q264 471 365 471 Z M365 400 Q298 400 264 349 Q235 306 236 237 Q236 169 274 120 Q310 73 365 71 Q428 73 466 133 Q495 179 495 237 Q496 320 455 364 Q421 400 365 400 Z "/>
<glyph glyph-name="uniE035" unicode="" horiz-adv-x="630" d="M386 471 Q467 471 516 430 Q574 382 575 290 L575 94 Q575 56 549 28 Q522 0 485 0 L-4 0 L-4 71 L220 71 Q182 106 164 158 Q150 199 150 241 Q150 347 215 410 Q278 471 386 471 Z M386 400 Q302 400 263 342 Q236 301 236 237 Q237 170 279 122 Q324 71 399 71 L452 71 Q469 71 479.5 81.5 Q490 92 490 109 L490 290 Q490 345 457 376 Q430 400 386 400 Z "/>
<glyph glyph-name="uniE036" unicode="" horiz-adv-x="740" d="M519 472 Q598 472 648 433 Q711 384 711 291 L711 71 L743 71 L743 0 L711 0 Q708 -123 626 -186 Q556 -239 445 -239 L335 -239 Q211 -239 140 -174 Q69 -109 69 9 L69 150 L112 185 L154 185 L154 11 Q154 -58 180 -98 Q212 -148 298 -163 Q323 -167 390 -167 Q457 -167 483 -163 Q542 -152 574 -127 Q623 -87 626 0 L515 0 Q408 0 346 69 Q289 133 289 239 Q289 356 362 419 Q423 472 519 472 Z M518 401 Q448 401 409 353 Q374 308 374 230 Q374 161 412 116 Q450 71 515 71 L626 71 L626 290 Q626 344 592 375 Q563 401 518 401 Z "/>
<glyph glyph-name="uniE041" unicode="" horiz-adv-x="1044" d="M974 460 L974 94 Q974 56 948 28 Q921 0 884 0 L711 0 Q708 -114 637 -177 Q565 -239 445 -239 L334 -239 Q217 -239 146 -180 Q69 -114 69 9 L69 139 L112 174 L154 174 L154 11 Q154 -72 191 -113 Q224 -151 298 -164 Q321 -168 387 -168 Q456 -168 483 -164 Q545 -153 578 -124 Q623 -86 626 0 L549 0 L514 43 L514 71 L851 71 Q868 71 878.5 81.5 Q889 92 889 109 L889 460 L974 460 Z M794 -104 Q814 -104 828.5 -118.5 Q843 -133 843 -154 Q843 -174 828.5 -188.5 Q814 -203 794 -203 Q774 -203 759.5 -188.5 Q745 -174 745 -154 Q745 -133 759.5 -118.5 Q774 -104 794 -104 Z M917 -104 Q937 -104 951.5 -118.5 Q966 -133 966 -154 Q966 -174 951.5 -188.5 Q937 -203 917 -203 Q896 -203 881.5 -188.5 Q867 -174 867 -154 Q867 -133 881.5 -118.5 Q896 -104 917 -104 Z M855 -205 Q874 -205 888 -219 Q902 -233 902 -252 Q902 -271 888 -285 Q874 -299 855 -299 Q836 -299 822 -285 Q808 -271 808 -252 Q808 -233 822 -219 Q836 -205 855 -205 Z "/>
<glyph glyph-name="uniE042" unicode="" horiz-adv-x="1021" d="M974 460 L974 94 Q974 82 971 71 L1025 71 L1025 0 L985 0 L957 35 L954 35 Q926 0 884 0 L711 0 Q708 -105 647 -167 Q576 -239 445 -239 L334 -239 Q210 -239 138 -173 Q69 -108 69 9 L69 139 L112 174 L154 174 L154 11 Q154 -67 186 -107 Q219 -150 298 -164 Q321 -168 387 -168 Q456 -168 483 -164 Q547 -153 579 -123 Q623 -83 626 0 L549 0 L514 43 L514 71 L851 71 Q868 71 878.5 81.5 Q889 92 889 109 L889 460 L974 460 Z M803 -104 Q823 -104 837.5 -118.5 Q852 -133 852 -154 Q852 -174 837.5 -188.5 Q823 -203 803 -203 Q783 -203 768.5 -188.5 Q754 -174 754 -154 Q754 -133 768.5 -118.5 Q783 -104 803 -104 Z M925 -104 Q945 -104 959.5 -118.5 Q974 -133 974 -154 Q974 -174 959.5 -188.5 Q945 -203 925 -203 Q905 -203 890.5 -188.5 Q876 -174 876 -154 Q876 -133 890.5 -118.5 Q905 -104 925 -104 Z M864 -205 Q883 -205 897 -219 Q911 -233 911 -252 Q911 -271 897 -285 Q883 -299 864 -299 Q845 -299 831 -285 Q817 -271 817 -252 Q817 -233 831 -219 Q845 -205 864 -205 Z "/>
<glyph glyph-name="uniE043" unicode="" horiz-adv-x="1044" d="M974 460 L974 94 Q974 56 948 28 Q921 0 884 0 L711 0 Q708 -114 637 -177 Q565 -239 445 -239 L334 -239 Q217 -239 146 -180 Q69 -114 69 9 L69 139 L112 174 L154 174 L154 11 Q154 -72 191 -113 Q224 -151 298 -164 Q321 -168 387 -168 Q456 -168 483 -164 Q545 -153 578 -124 Q623 -86 626 0 L549 0 L514 43 L514 71 L851 71 Q868 71 878.5 81.5 Q889 92 889 109 L889 460 L974 460 Z M794 -104 Q814 -104 828.5 -118.5 Q843 -133 843 -154 Q843 -174 828.5 -188.5 Q814 -203 794 -203 Q774 -203 759.5 -188.5 Q745 -174 745 -154 Q745 -133 759.5 -118.5 Q774 -104 794 -104 Z M917 -104 Q937 -104 951.5 -118.5 Q966 -133 966 -154 Q966 -174 951.5 -188.5 Q937 -203 917 -203 Q896 -203 881.5 -188.5 Q867 -174 867 -154 Q867 -133 881.5 -118.5 Q896 -104 917 -104 Z M855 -205 Q874 -205 888 -219 Q902 -233 902 -252 Q902 -271 888 -285 Q874 -299 855 -299 Q836 -299 822 -285 Q808 -271 808 -252 Q808 -233 822 -219 Q836 -205 855 -205 Z M330 -298 Q350 -298 364.5 -312.5 Q379 -327 379 -347 Q379 -367 364.5 -381.5 Q350 -396 330 -396 Q309 -396 294.5 -381.5 Q280 -367 280 -347 Q280 -327 294.5 -312.5 Q309 -298 330 -298 Z M451 -298 Q471 -298 485.5 -312.5 Q500 -327 500 -347 Q500 -367 485.5 -381.5 Q471 -396 451 -396 Q430 -396 415.5 -381.5 Q401 -367 401 -347 Q401 -327 415.5 -312.5 Q430 -298 451 -298 Z "/>
<glyph glyph-name="uniE044" unicode="" horiz-adv-x="1021" d="M974 460 L974 94 Q974 82 971 71 L1025 71 L1025 0 L985 0 L957 35 L954 35 Q926 0 884 0 L711 0 Q708 -105 647 -167 Q576 -239 445 -239 L334 -239 Q210 -239 138 -173 Q69 -108 69 9 L69 139 L112 174 L154 174 L154 11 Q154 -67 186 -107 Q219 -150 298 -164 Q321 -168 387 -168 Q456 -168 483 -164 Q547 -153 579 -123 Q623 -83 626 0 L549 0 L514 43 L514 71 L851 71 Q868 71 878.5 81.5 Q889 92 889 109 L889 460 L974 460 Z M803 -104 Q823 -104 837.5 -118.5 Q852 -133 852 -154 Q852 -174 837.5 -188.5 Q823 -203 803 -203 Q783 -203 768.5 -188.5 Q754 -174 754 -154 Q754 -133 768.5 -118.5 Q783 -104 803 -104 Z M925 -104 Q945 -104 959.5 -118.5 Q974 -133 974 -154 Q974 -174 959.5 -188.5 Q945 -203 925 -203 Q905 -203 890.5 -188.5 Q876 -174 876 -154 Q876 -133 890.5 -118.5 Q905 -104 925 -104 Z M869 -205 Q888 -205 902 -219 Q916 -233 916 -252 Q916 -271 902 -285 Q888 -299 869 -299 Q850 -299 836 -285 Q822 -271 822 -252 Q822 -233 836 -219 Q850 -205 869 -205 Z M330 -298 Q350 -298 364.5 -312.5 Q379 -327 379 -347 Q379 -367 364.5 -381.5 Q350 -396 330 -396 Q309 -396 294.5 -381.5 Q280 -367 280 -347 Q280 -327 294.5 -312.5 Q309 -298 330 -298 Z M451 -298 Q471 -298 485.5 -312.5 Q500 -327 500 -347 Q500 -367 485.5 -381.5 Q471 -396 451 -396 Q430 -396 415.5 -381.5 Q401 -367 401 -347 Q401 -327 415.5 -312.5 Q430 -298 451 -298 Z "/>
<glyph glyph-name="uniE045" unicode="" horiz-adv-x="1067" d="M153 471 Q164 473 176 473 Q199 473 224 465 L224 424 Q206 429 189 429 Q182 429 175 428 Q157 426 147 411 Q137 397 137 376 Q137 356 149 340 Q165 321 193 321 L257 321 L257 304 L237 280 L69 280 L69 321 L113 321 Q92 348 92 386 Q92 415 104 437 Q120 463 153 471 Z M997 460 L997 94 Q997 56 971 28 Q944 0 907 0 L734 0 Q731 -114 660 -177 Q588 -239 468 -239 L357 -239 Q240 -239 169 -180 Q92 -114 92 9 L92 139 L135 174 L177 174 L177 11 Q177 -72 214 -113 Q247 -151 321 -164 Q344 -168 410 -168 Q479 -168 506 -164 Q568 -153 601 -124 Q646 -86 649 0 L572 0 L537 43 L537 71 L874 71 Q891 71 901.5 81.5 Q912 92 912 109 L912 460 L997 460 Z M817 -104 Q837 -104 851.5 -118.5 Q866 -133 866 -154 Q866 -174 851.5 -188.5 Q837 -203 817 -203 Q797 -203 782.5 -188.5 Q768 -174 768 -154 Q768 -133 782.5 -118.5 Q797 -104 817 -104 Z M939 -104 Q959 -104 973.5 -118.5 Q988 -133 988 -154 Q988 -174 973.5 -188.5 Q959 -203 939 -203 Q919 -203 904.5 -188.5 Q890 -174 890 -154 Q890 -133 904.5 -118.5 Q919 -104 939 -104 Z M877 -205 Q896 -205 910 -219 Q924 -233 924 -252 Q924 -271 910 -285 Q896 -299 877 -299 Q858 -299 844 -285 Q830 -271 830 -252 Q830 -233 844 -219 Q858 -205 877 -205 Z "/>
<glyph glyph-name="uniE046" unicode="" horiz-adv-x="1044" d="M153 471 Q164 473 176 473 Q199 473 224 465 L224 424 Q206 429 189 429 Q182 429 175 428 Q157 426 147 411 Q137 397 137 376 Q137 356 149 340 Q165 321 193 321 L257 321 L257 304 L237 280 L69 280 L69 321 L113 321 Q92 348 92 386 Q92 415 104 437 Q120 463 153 471 Z M997 460 L997 94 Q997 82 994 71 L1048 71 L1048 0 L1008 0 L980 35 L977 35 Q949 0 907 0 L734 0 Q731 -105 670 -167 Q599 -239 468 -239 L357 -239 Q233 -239 161 -173 Q92 -108 92 9 L92 139 L135 174 L177 174 L177 11 Q177 -67 209 -107 Q242 -150 321 -164 Q344 -168 410 -168 Q479 -168 506 -164 Q570 -152 602 -123 Q646 -83 649 0 L572 0 L537 43 L537 71 L874 71 Q891 71 901.5 81.5 Q912 92 912 109 L912 460 L997 460 Z M826 -104 Q847 -104 861.5 -118.5 Q876 -133 876 -154 Q876 -174 861.5 -188.5 Q847 -203 826 -203 Q806 -203 791.5 -188.5 Q777 -174 777 -154 Q777 -133 791.5 -118.5 Q806 -104 826 -104 Z M948 -104 Q968 -104 982.5 -118.5 Q997 -133 997 -154 Q997 -174 982.5 -188.5 Q968 -203 948 -203 Q928 -203 913.5 -188.5 Q899 -174 899 -154 Q899 -133 913.5 -118.5 Q928 -104 948 -104 Z M887 -205 Q906 -205 920 -219 Q934 -233 934 -252 Q934 -271 920 -285 Q906 -299 887 -299 Q868 -299 854 -285 Q840 -271 840 -252 Q840 -233 854 -219 Q868 -205 887 -205 Z "/>
<glyph glyph-name="uniE047" unicode="" horiz-adv-x="1060" d="M928 731 L928 653 L676 504 Q786 475 864 408 Q1004 292 1004 94 Q1004 58 981 32 Q955 0 915 0 L734 0 Q731 -115 659 -177 Q589 -239 468 -239 L357 -239 Q240 -239 169 -180 Q92 -114 92 9 L92 139 L135 174 L177 174 L177 11 Q177 -84 227 -126 Q259 -153 321 -164 Q344 -168 410 -168 Q479 -168 505 -164 Q564 -153 595 -129 Q646 -90 649 0 L572 0 L537 43 L537 71 L881 71 Q905 71 914 84 Q919 92 919 105 Q919 108 919 111 Q904 272 803 355 Q723 418 603 433 Q597 434 597 440 L597 540 L928 731 Z M153 471 Q164 473 176 473 Q199 473 224 465 L224 424 Q206 429 189 429 Q182 429 175 428 Q157 426 147 411 Q137 397 137 376 Q137 356 149 340 Q165 321 193 321 L257 321 L257 304 L237 280 L69 280 L69 321 L113 321 Q92 348 92 386 Q92 415 104 437 Q120 463 153 471 Z "/>
<glyph glyph-name="uniE048" unicode="" horiz-adv-x="1032" d="M928 731 L928 653 L676 504 Q836 461 924 346 Q961 298 983 233.5 Q1005 169 1005 108 Q1005 95 1004 83 Q1003 78 1001 71 L1035 71 L1035 0 L1015 0 L987 35 L984 35 Q956 0 914 0 L734 0 Q731 -116 658 -179 Q586 -239 468 -239 L357 -239 Q231 -239 160 -171 Q92 -107 92 9 L92 139 L135 174 L177 174 L177 11 Q177 -63 206 -104 Q239 -149 321 -164 Q344 -168 410 -168 Q479 -168 505 -164 Q564 -153 595 -129 Q646 -89 649 0 L572 0 L537 43 L537 71 L881 71 Q905 71 914 83 Q920 91 920 105 Q920 108 920 111 Q909 225 860 294 Q780 410 603 433 Q597 434 597 440 L597 540 L928 731 Z M153 471 Q164 473 176 473 Q199 473 224 465 L224 424 Q206 429 189 429 Q182 429 175 428 Q157 426 147 411 Q137 397 137 376 Q137 356 149 340 Q165 321 193 321 L257 321 L257 304 L237 280 L69 280 L69 321 L113 321 Q92 348 92 386 Q92 415 104 437 Q120 463 153 471 Z "/>
<glyph glyph-name="uniE049" unicode="" horiz-adv-x="1037" d="M574 664 L905 855 L905 780 L574 589 L574 664 Z M905 731 L905 653 L653 504 Q814 461 901 346 Q981 242 981 94 Q981 58 958 32 Q932 0 892 0 L711 0 Q708 -115 636 -177 Q566 -239 445 -239 L334 -239 Q216 -239 146 -180 Q69 -114 69 9 L69 139 L112 174 L154 174 L154 11 Q154 -84 204 -126 Q236 -153 298 -164 Q321 -168 387 -168 Q456 -168 483 -164 Q541 -153 572 -129 Q623 -90 626 0 L549 0 L514 43 L514 71 L858 71 Q896 71 896 104 Q896 107 896 111 Q882 260 799 338 Q717 416 580 433 Q574 434 574 440 L574 540 L905 731 Z "/>
<glyph glyph-name="uniE04A" unicode="" horiz-adv-x="1009" d="M574 664 L905 855 L905 780 L574 589 L574 664 Z M905 731 L905 653 L653 504 Q813 461 901 346 Q938 298 960 233.5 Q982 169 982 108 Q982 96 981 83 Q980 78 978 71 L1012 71 L1012 0 L992 0 L964 35 L961 35 Q933 0 891 0 L711 0 Q708 -116 635 -179 Q564 -239 445 -239 L334 -239 Q208 -239 137 -171 Q69 -107 69 9 L69 139 L112 174 L154 174 L154 11 Q154 -63 183 -104 Q216 -149 298 -164 Q321 -168 387 -168 Q456 -168 483 -164 Q541 -153 572 -129 Q623 -89 626 0 L549 0 L514 43 L514 71 L858 71 Q897 71 897 104 Q897 106 897 111 Q886 226 837 294 Q757 410 580 433 Q574 434 574 440 L574 540 L905 731 Z "/>
<glyph glyph-name="uniE04B" unicode="" horiz-adv-x="1037" d="M574 664 L905 855 L905 780 L574 589 L574 664 Z M905 731 L905 653 L653 504 Q814 461 901 346 Q981 242 981 94 Q981 58 958 32 Q932 0 892 0 L711 0 Q708 -115 636 -177 Q566 -239 445 -239 L334 -239 Q216 -239 146 -180 Q69 -114 69 9 L69 139 L112 174 L154 174 L154 11 Q154 -84 204 -126 Q236 -153 298 -164 Q321 -168 387 -168 Q456 -168 483 -164 Q541 -153 572 -129 Q623 -90 626 0 L549 0 L514 43 L514 71 L858 71 Q896 71 896 104 Q896 107 896 111 Q882 260 799 338 Q717 416 580 433 Q574 434 574 440 L574 540 L905 731 Z M330 -298 Q350 -298 364.5 -312.5 Q379 -327 379 -347 Q379 -367 364.5 -381.5 Q350 -396 330 -396 Q309 -396 294.5 -381.5 Q280 -367 280 -347 Q280 -327 294.5 -312.5 Q309 -298 330 -298 Z M451 -298 Q471 -298 485.5 -312.5 Q500 -327 500 -347 Q500 -367 485.5 -381.5 Q471 -396 451 -396 Q430 -396 415.5 -381.5 Q401 -367 401 -347 Q401 -327 415.5 -312.5 Q430 -298 451 -298 Z "/>
<glyph glyph-name="uniE04C" unicode="" horiz-adv-x="1009" d="M574 664 L905 855 L905 780 L574 589 L574 664 Z M905 731 L905 653 L653 504 Q813 461 901 346 Q938 298 960 233.5 Q982 169 982 108 Q982 96 981 83 Q980 78 978 71 L1012 71 L1012 0 L992 0 L964 35 L961 35 Q933 0 891 0 L711 0 Q708 -116 635 -179 Q564 -239 445 -239 L334 -239 Q208 -239 137 -171 Q69 -107 69 9 L69 139 L112 174 L154 174 L154 11 Q154 -63 183 -104 Q216 -149 298 -164 Q321 -168 387 -168 Q456 -168 483 -164 Q541 -153 572 -129 Q623 -89 626 0 L549 0 L514 43 L514 71 L858 71 Q897 71 897 104 Q897 106 897 111 Q886 226 837 294 Q757 410 580 433 Q574 434 574 440 L574 540 L905 731 Z M330 -298 Q350 -298 364.5 -312.5 Q379 -327 379 -347 Q379 -367 364.5 -381.5 Q350 -396 330 -396 Q309 -396 294.5 -381.5 Q280 -367 280 -347 Q280 -327 294.5 -312.5 Q309 -298 330 -298 Z M451 -298 Q471 -298 485.5 -312.5 Q500 -327 500 -347 Q500 -367 485.5 -381.5 Q471 -396 451 -396 Q430 -396 415.5 -381.5 Q401 -367 401 -347 Q401 -327 415.5 -312.5 Q430 -298 451 -298 Z "/>
<glyph glyph-name="uniE04D" unicode="" horiz-adv-x="1060" d="M597 664 L928 855 L928 780 L597 589 L597 664 Z M928 731 L928 653 L676 504 Q837 461 924 346 Q1004 242 1004 94 Q1004 58 981 32 Q955 0 915 0 L734 0 Q731 -115 659 -177 Q589 -239 468 -239 L357 -239 Q240 -239 169 -180 Q92 -114 92 9 L92 139 L135 174 L177 174 L177 11 Q177 -84 227 -126 Q259 -153 321 -164 Q344 -168 410 -168 Q479 -168 505 -164 Q564 -153 595 -129 Q646 -90 649 0 L572 0 L537 43 L537 71 L881 71 Q919 71 919 104 Q919 107 919 111 Q905 260 822 338 Q740 416 603 433 Q597 434 597 440 L597 540 L928 731 Z M153 471 Q164 473 176 473 Q199 473 224 465 L224 424 Q206 429 189 429 Q182 429 175 428 Q157 426 147 411 Q137 397 137 376 Q137 356 149 340 Q165 321 193 321 L257 321 L257 304 L237 280 L69 280 L69 321 L113 321 Q92 348 92 386 Q92 415 104 437 Q120 463 153 471 Z "/>
<glyph glyph-name="uniE04E" unicode="" horiz-adv-x="1032" d="M597 664 L928 855 L928 780 L597 589 L597 664 Z M928 731 L928 653 L676 504 Q836 461 924 346 Q961 298 983 233.5 Q1005 169 1005 108 Q1005 95 1004 83 Q1003 78 1001 71 L1035 71 L1035 0 L1015 0 L987 35 L984 35 Q956 0 914 0 L734 0 Q731 -116 658 -179 Q586 -239 468 -239 L357 -239 Q231 -239 160 -171 Q92 -107 92 9 L92 139 L135 174 L177 174 L177 11 Q177 -63 206 -104 Q239 -149 321 -164 Q344 -168 410 -168 Q479 -168 505 -164 Q564 -153 595 -129 Q646 -89 649 0 L572 0 L537 43 L537 71 L881 71 Q920 71 920 104 Q920 106 920 111 Q909 226 860 294 Q780 410 603 433 Q597 434 597 440 L597 540 L928 731 Z M153 471 Q164 473 176 473 Q199 473 224 465 L224 424 Q206 429 189 429 Q182 429 175 428 Q157 426 147 411 Q137 397 137 376 Q137 356 149 340 Q165 321 193 321 L257 321 L257 304 L237 280 L69 280 L69 321 L113 321 Q92 348 92 386 Q92 415 104 437 Q120 463 153 471 Z "/>
<glyph glyph-name="uniE051" unicode="" horiz-adv-x="1067" d="M153 471 Q164 473 176 473 Q199 473 224 465 L224 424 Q206 429 189 429 Q182 429 175 428 Q157 426 147 411 Q137 397 137 376 Q137 356 149 340 Q165 321 193 321 L257 321 L257 304 L237 280 L69 280 L69 321 L113 321 Q92 348 92 386 Q92 415 104 437 Q120 463 153 471 Z M997 460 L997 94 Q997 56 971 28 Q944 0 907 0 L734 0 Q731 -114 660 -177 Q588 -239 468 -239 L357 -239 Q240 -239 169 -180 Q92 -114 92 9 L92 139 L135 174 L177 174 L177 11 Q177 -72 214 -113 Q247 -151 321 -164 Q344 -168 410 -168 Q479 -168 506 -164 Q568 -153 601 -124 Q646 -86 649 0 L572 0 L537 43 L537 71 L874 71 Q891 71 901.5 81.5 Q912 92 912 109 L912 460 L997 460 Z M817 -104 Q837 -104 851.5 -118.5 Q866 -133 866 -154 Q866 -174 851.5 -188.5 Q837 -203 817 -203 Q797 -203 782.5 -188.5 Q768 -174 768 -154 Q768 -133 782.5 -118.5 Q797 -104 817 -104 Z M939 -104 Q959 -104 973.5 -118.5 Q988 -133 988 -154 Q988 -174 973.5 -188.5 Q959 -203 939 -203 Q919 -203 904.5 -188.5 Q890 -174 890 -154 Q890 -133 904.5 -118.5 Q919 -104 939 -104 Z "/>
<glyph glyph-name="uniE052" unicode="" horiz-adv-x="1044" d="M153 471 Q164 473 176 473 Q199 473 224 465 L224 424 Q206 429 189 429 Q182 429 175 428 Q157 426 147 411 Q137 397 137 376 Q137 356 149 340 Q165 321 193 321 L257 321 L257 304 L237 280 L69 280 L69 321 L113 321 Q92 348 92 386 Q92 415 104 437 Q120 463 153 471 Z M997 460 L997 94 Q997 82 994 71 L1048 71 L1048 0 L1008 0 L980 35 L977 35 Q949 0 907 0 L734 0 Q731 -105 670 -167 Q599 -239 468 -239 L357 -239 Q233 -239 161 -173 Q92 -108 92 9 L92 139 L135 174 L177 174 L177 11 Q177 -67 209 -107 Q242 -150 321 -164 Q344 -168 410 -168 Q479 -168 506 -164 Q570 -152 602 -123 Q646 -83 649 0 L572 0 L537 43 L537 71 L874 71 Q891 71 901.5 81.5 Q912 92 912 109 L912 460 L997 460 Z M826 -104 Q847 -104 861.5 -118.5 Q876 -133 876 -154 Q876 -174 861.5 -188.5 Q847 -203 826 -203 Q806 -203 791.5 -188.5 Q777 -174 777 -154 Q777 -133 791.5 -118.5 Q806 -104 826 -104 Z M948 -104 Q968 -104 982.5 -118.5 Q997 -133 997 -154 Q997 -174 982.5 -188.5 Q968 -203 948 -203 Q928 -203 913.5 -188.5 Q899 -174 899 -154 Q899 -133 913.5 -118.5 Q928 -104 948 -104 Z "/>
<glyph glyph-name="uniE053" unicode="" horiz-adv-x="682" d="M669 674 L669 596 Q596 596 540 552 Q479 505 426 405 Q373 504 310 552 Q254 596 185 596 Q181 596 177 596 L177 35 L134 0 L92 0 L92 674 L181 674 Q260 674 314 644 Q341 628 360.5 608.5 Q380 589 425 532 Q470 589 489.5 608.5 Q509 628 536 644 Q589 673 669 674 Z "/>
<glyph glyph-name="uniE054" unicode="" horiz-adv-x="633" d="M478 604 L478 500 L95 71 L609 71 L609 43 L574 0 L108 0 Q41 0 25 54 Q21 66 21 79 Q21 116 56 153 L478 604 Z "/>
<glyph glyph-name="uniE060" unicode="" horiz-adv-x="1123" d="M740 1090 L740 899 L718 881 L696 881 L696 1090 L740 1090 Z M840 842 L840 732 Q840 713 828 700 Q815 685 793 685 L746 685 L733 699 L732 699 Q729 695 724 691 Q714 685 703 685 L643 685 Q622 685 609 699 Q596 712 596 732 L596 800 L617 818 L639 818 L639 734 Q639 729 642 726 Q647 720 653 720 L682 720 Q688 720 692 724 Q696 729 696 734 L696 818 L740 818 L740 720 L783 720 Q789 720 793 725 Q797 728 797 734 L797 842 L840 842 Z M1049 613 L1049 94 Q1049 54 1021 27 Q995 0 959 0 L778 0 L746 35 L743 35 Q731 21 713 10 Q694 0 673 0 L484 0 Q439 0 412 34 Q346 -11 277 -11 Q191 -11 131 42 Q55 109 55 231 Q55 351 136 422 Q192 472 266 477 Q275 478 284 478 Q337 478 391 453 L434 488 L476 488 L476 109 Q476 91 487 80 Q495 71 506 71 L640 71 Q657 71 667 81 Q678 92 678 109 L678 613 L763 613 L763 94 Q763 82 760 71 L926 71 Q944 71 955 83 Q964 93 964 109 L964 613 L1049 613 Z M284 404 Q229 398 190 359 Q140 309 140 229 Q140 151 181 104 Q219 60 278 60 Q332 60 391 89 L391 383 Q347 405 303 405 Q293 405 284 404 Z "/>
<glyph glyph-name="uniEA26" unicode="" horiz-adv-x="719" d="M349 793 Q409 792 445 752 Q476 716 476 660 Q476 630 461 600 Q444 565 410 543 Q518 488 587 402 Q671 297 671 163 Q671 37 585 -53 Q497 -142 333 -142 L307 -110 L307 -84 Q377 -84 427 -68.5 Q477 -53 519 -19 Q600 47 600 163 Q600 260 550 337 Q518 387 479 419 Q440 451 350 502 Q210 427 150 336 Q109 273 110 207 Q111 150 138 106 Q168 58 221 42 L221 18 L201 -7 Q125 21 90 68 Q45 130 44 215 Q44 304 93 377 Q130 429 162.5 456 Q195 483 290 539 Q260 559 243 589 Q226 618 223 652 Q222 659 222 665 Q222 705 242 737 Q277 794 349 793 Z M350 731 Q324 731 306.5 711 Q289 691 289 661 Q289 657 289 653 Q293 604 350 578 Q407 604 411 654 Q411 657 411 661 Q411 691 393.5 711 Q376 731 350 731 Z M359 391 Q407 391 438 366 Q475 336 475 281 L475 110 Q474 47 425 8 Q399 -12 363 -20 Q339 -25 313 -25 Q304 -25 289 -24 L267 4 L267 29 Q286 27 306 27 Q325 27 337 29 Q377 36 398 56 Q423 80 424 111 Q395 100 358 99 Q305 99 268 130 Q220 172 220 249 Q220 313 256 351 Q294 391 359 391 Z M356 330 Q322 330 303 307 Q284 284 284 242 Q284 204 302 182 Q320 158 354 157 Q384 156 410 166 L410 274 Q410 306 388 321 Q376 330 356 330 Z "/>
<glyph glyph-name="uniFB51" unicode="ﭑ" horiz-adv-x="202" d="M257 893 Q260 884 260 874 Q260 836 221 810 Q195 793 154 793 Q126 793 94 801 Q82 804 55 813 Q21 825 11 824 Q-15 823 -46 795 L-69 812 Q-34 871 11 872 Q36 873 64 861 Q86 894 110 914 Q137 935 166 941 Q174 942 183 942 Q210 942 230 929 Q250 916 257 893 Z M174 902 Q155 898 140 887 Q122 875 104 849 Q143 836 169 836 Q180 836 190 838 Q204 842 213 851.5 Q222 861 222 872 Q222 877 220 881 Q212 903 184 903 Q179 903 174 902 Z M154 716 L154 109 Q154 93 164 82 Q175 71 192 71 L205 71 L205 0 L159 0 Q127 0 103 21 Q69 50 69 95 L69 716 L154 716 Z "/>
<glyph glyph-name="uniFB57" unicode="ﭗ" horiz-adv-x="935" d="M888 460 L888 94 Q888 82 885 71 L939 71 L939 0 L903 0 L871 35 L868 35 Q840 0 798 0 L225 0 Q170 0 126 37 Q69 85 69 165 L69 353 L112 388 L154 388 L154 165 Q154 126 181 99 Q210 71 250 71 L765 71 Q783 71 794 83 Q803 93 803 109 L803 460 L888 460 Z M419 -104 Q439 -104 453.5 -118.5 Q468 -133 468 -154 Q468 -174 453.5 -188.5 Q439 -203 419 -203 Q398 -203 383.5 -188.5 Q369 -174 369 -154 Q369 -133 383.5 -118.5 Q398 -104 419 -104 Z M540 -104 Q560 -104 574.5 -118.5 Q589 -133 589 -154 Q589 -174 574.5 -188.5 Q560 -203 540 -203 Q519 -203 504.5 -188.5 Q490 -174 490 -154 Q490 -133 504.5 -118.5 Q519 -104 540 -104 Z M479 -205 Q498 -205 512 -219 Q526 -233 526 -252 Q526 -271 512 -285 Q498 -299 479 -299 Q460 -299 446 -285 Q432 -271 432 -252 Q432 -233 446 -219 Q460 -205 479 -205 Z "/>
<glyph glyph-name="uniFB58" unicode="ﭘ" horiz-adv-x="330" d="M261 460 L261 94 Q261 58 237 31 Q210 0 171 0 L-4 0 L-4 71 L138 71 Q155 71 167 83 Q176 93 176 109 L176 460 L261 460 Z M80 -104 Q100 -104 114.5 -118.5 Q129 -133 129 -154 Q129 -174 114.5 -188.5 Q100 -203 80 -203 Q60 -203 45.5 -188.5 Q31 -174 31 -154 Q31 -133 45.5 -118.5 Q60 -104 80 -104 Z M202 -104 Q222 -104 236.5 -118.5 Q251 -133 251 -154 Q251 -174 236.5 -188.5 Q222 -203 202 -203 Q182 -203 167.5 -188.5 Q153 -174 153 -154 Q153 -133 167.5 -118.5 Q182 -104 202 -104 Z M142 -205 Q161 -205 175 -219 Q189 -233 189 -252 Q189 -271 175 -285 Q161 -299 142 -299 Q123 -299 109 -285 Q95 -271 95 -252 Q95 -233 109 -219 Q123 -205 142 -205 Z "/>
<glyph glyph-name="uniFB59" unicode="ﭙ" horiz-adv-x="308" d="M261 460 L261 94 Q261 82 258 71 L311 71 L311 0 L272 0 L244 35 L241 35 Q213 0 171 0 L-4 0 L-4 71 L138 71 Q154 71 164 81 Q176 91 176 109 L176 460 L261 460 Z M90 -104 Q110 -104 124.5 -118.5 Q139 -133 139 -154 Q139 -174 124.5 -188.5 Q110 -203 90 -203 Q70 -203 55.5 -188.5 Q41 -174 41 -154 Q41 -133 55.5 -118.5 Q70 -104 90 -104 Z M211 -104 Q231 -104 245.5 -118.5 Q260 -133 260 -154 Q260 -174 245.5 -188.5 Q231 -203 211 -203 Q191 -203 176.5 -188.5 Q162 -174 162 -154 Q162 -133 176.5 -118.5 Q191 -104 211 -104 Z M151 -205 Q170 -205 184 -219 Q198 -233 198 -252 Q198 -271 184 -285 Q170 -299 151 -299 Q132 -299 118 -285 Q104 -271 104 -252 Q104 -233 118 -219 Q132 -205 151 -205 Z "/>
<glyph glyph-name="uniFB67" unicode="ﭧ" horiz-adv-x="935" d="M432 594 L431 498 Q455 527 485 545 Q513 562 542 564 Q547 564 550 564 Q582 564 607 544 Q632 524 632 477 L632 444 Q632 423 620 408 Q603 388 576 388 L362 388 L362 429 L388 429 L388 594 L432 594 Z M545 523 Q516 522 483 497 Q450 470 431 429 L568 429 Q587 429 587 448 L587 476 Q587 502 573 514 Q562 523 545 523 Z M888 460 L888 94 Q888 82 885 71 L939 71 L939 0 L903 0 L871 35 L868 35 Q840 0 798 0 L225 0 Q170 0 126 37 Q69 85 69 165 L69 353 L112 388 L154 388 L154 165 Q154 126 181 99 Q210 71 250 71 L765 71 Q783 71 794 83 Q803 93 803 109 L803 460 L888 460 Z "/>
<glyph glyph-name="uniFB68" unicode="ﭨ" horiz-adv-x="330" d="M69 785 L69 689 Q93 719 123 737 Q152 754 180 756 Q184 756 188 756 Q220 756 245 736 Q270 715 270 669 L270 635 Q270 614 258 599 Q242 579 214 579 L0 579 L0 620 L26 620 L26 785 L69 785 Z M183 715 Q154 714 121 689 Q88 662 69 620 L206 620 Q225 620 225 639 L225 667 Q225 694 211 706 Q200 715 183 715 Z M261 460 L261 94 Q261 58 237 31 Q210 0 171 0 L-4 0 L-4 71 L138 71 Q155 71 167 83 Q176 93 176 109 L176 460 L261 460 Z "/>
<glyph glyph-name="uniFB69" unicode="ﭩ" horiz-adv-x="308" d="M69 785 L69 689 Q93 719 123 737 Q152 754 180 756 Q184 756 188 756 Q220 756 245 736 Q270 715 270 669 L270 635 Q270 614 258 599 Q242 579 214 579 L0 579 L0 620 L26 620 L26 785 L69 785 Z M183 715 Q154 714 121 689 Q88 662 69 620 L206 620 Q225 620 225 639 L225 667 Q225 694 211 706 Q200 715 183 715 Z M261 460 L261 94 Q261 82 258 71 L311 71 L311 0 L272 0 L244 35 L241 35 Q213 0 171 0 L-4 0 L-4 71 L138 71 Q154 71 164 81 Q176 91 176 109 L176 460 L261 460 Z "/>
<glyph glyph-name="uniFB6B" unicode="ﭫ" horiz-adv-x="961" d="M725 776 Q744 776 758 762 Q772 748 772 729 Q772 710 758 696 Q744 682 725 682 Q706 682 692 696 Q678 710 678 729 Q678 748 692 762 Q706 776 725 776 Z M665 679 Q685 679 699.5 664.5 Q714 650 714 630 Q714 610 699.5 595.5 Q685 581 665 581 Q644 581 629.5 595.5 Q615 610 615 630 Q615 650 629.5 664.5 Q644 679 665 679 Z M786 679 Q806 679 820.5 664.5 Q835 650 835 630 Q835 610 820.5 595.5 Q806 581 786 581 Q765 581 750.5 595.5 Q736 610 736 630 Q736 650 750.5 664.5 Q765 679 786 679 Z M724 472 Q814 472 874 414 Q940 348 940 241 Q940 194 923 148.5 Q906 103 877 71 L964 71 L964 0 L820 0 Q750 0 726 8 L722 8 Q698 0 627 0 L225 0 Q166 0 122 41 Q69 90 69 165 L69 353 L112 388 L154 388 L154 165 Q154 126 180 100 Q208 71 250 71 L572 71 Q543 102 526 148 Q509 194 509 241 Q509 338 562 401 Q623 472 724 472 Z M724 401 Q661 401 627 355 Q595 313 595 238 Q596 167 634 119 Q670 73 724 71 Q788 74 826 134 Q854 181 854 238 Q855 329 806 372 Q774 401 724 401 Z "/>
<glyph glyph-name="uniFB6C" unicode="ﭬ" horiz-adv-x="630" d="M386 776 Q405 776 419 762 Q433 748 433 729 Q433 710 419 696 Q405 682 386 682 Q367 682 353 696 Q339 710 339 729 Q339 748 353 762 Q367 776 386 776 Z M326 679 Q346 679 360.5 664.5 Q375 650 375 630 Q375 610 360.5 595.5 Q346 581 326 581 Q305 581 290.5 595.5 Q276 610 276 630 Q276 650 290.5 664.5 Q305 679 326 679 Z M447 679 Q467 679 481.5 664.5 Q496 650 496 630 Q496 610 481.5 595.5 Q467 581 447 581 Q426 581 411.5 595.5 Q397 610 397 630 Q397 650 411.5 664.5 Q426 679 447 679 Z M386 471 Q467 471 516 430 Q574 382 575 290 L575 94 Q575 56 549 28 Q522 0 485 0 L-4 0 L-4 71 L220 71 Q182 106 164 158 Q150 199 150 241 Q150 347 215 410 Q278 471 386 471 Z M386 400 Q302 400 263 342 Q236 301 236 237 Q237 170 279 122 Q324 71 399 71 L452 71 Q469 71 479.5 81.5 Q490 92 490 109 L490 290 Q490 345 457 376 Q430 400 386 400 Z "/>
<glyph glyph-name="uniFB6D" unicode="ﭭ" horiz-adv-x="602" d="M370 776 Q389 776 403 762 Q417 748 417 729 Q417 710 403 696 Q389 682 370 682 Q351 682 337 696 Q323 710 323 729 Q323 748 337 762 Q351 776 370 776 Z M310 679 Q330 679 344.5 664.5 Q359 650 359 630 Q359 610 344.5 595.5 Q330 581 310 581 Q289 581 274.5 595.5 Q260 610 260 630 Q260 650 274.5 664.5 Q289 679 310 679 Z M432 679 Q452 679 466.5 664.5 Q481 650 481 630 Q481 610 466.5 595.5 Q452 581 432 581 Q411 581 396.5 595.5 Q382 610 382 630 Q382 650 396.5 664.5 Q411 679 432 679 Z M365 471 Q446 471 503 423 Q581 359 581 241 Q581 195 564 149 Q547 103 518 71 L605 71 L605 0 L461 0 Q391 0 367 8 L363 8 Q339 0 268 0 L-4 0 L-4 71 L213 71 Q184 103 167 148.5 Q150 194 150 241 Q150 337 203 400 Q264 471 365 471 Z M365 400 Q298 400 264 349 Q235 306 236 237 Q236 169 274 120 Q310 73 365 71 Q428 73 466 133 Q495 179 495 237 Q496 320 455 364 Q421 400 365 400 Z "/>
<glyph glyph-name="uniFB7B" unicode="ﭻ" horiz-adv-x="625" d="M344 471 Q401 472 450 455 Q506 436 541 395 Q596 331 596 222 L596 94 Q596 82 594 71 L629 71 L629 0 L608 0 L579 35 L576 35 Q561 16 541 7 Q524 0 506 0 L299 0 Q216 0 174 -48 Q141 -83 141 -151 Q141 -212 172 -253 Q213 -308 301 -308 Q316 -308 334 -306 L334 -334 L298 -378 Q239 -378 203.5 -367.5 Q168 -357 134 -328 Q57 -265 56 -152 Q56 -99 67.5 -64 Q79 -29 105 0 Q171 71 312 71 L474 71 Q491 71 501 81.5 Q511 92 511 109 L511 225 Q511 302 471 347 Q426 397 340 397 Q269 397 180 376 L180 443 Q211 455 258 463 Q305 471 344 471 Z M329 -105 Q350 -105 364 -119.5 Q378 -134 378 -155 Q378 -175 364 -189.5 Q350 -204 329 -204 Q309 -204 294.5 -189.5 Q280 -175 280 -155 Q280 -134 294.5 -119.5 Q309 -105 329 -105 Z M451 -105 Q471 -105 485.5 -119.5 Q500 -134 500 -155 Q500 -175 485.5 -189.5 Q471 -204 451 -204 Q431 -204 416 -189.5 Q401 -175 401 -155 Q401 -134 416 -119.5 Q431 -105 451 -105 Z M390 -206 Q410 -206 423.5 -220 Q437 -234 437 -253 Q437 -272 423.5 -286 Q410 -300 390 -300 Q371 -300 357 -286 Q343 -272 343 -253 Q343 -234 357 -220 Q371 -206 390 -206 Z "/>
<glyph glyph-name="uniFB7C" unicode="ﭼ" horiz-adv-x="602" d="M293 471 Q350 472 399 455 Q455 436 491 395 Q546 331 546 222 L546 94 Q546 61 525 35 Q499 0 456 0 L-4 0 L-4 71 L423 71 Q440 71 450.5 81.5 Q461 92 461 109 L461 225 Q461 302 420 347 Q375 397 289 397 Q254 397 226.5 393.5 Q199 390 129 376 L129 443 Q221 471 293 471 Z M187 -104 Q207 -104 221.5 -118.5 Q236 -133 236 -154 Q236 -174 221.5 -188.5 Q207 -203 187 -203 Q167 -203 152.5 -188.5 Q138 -174 138 -154 Q138 -133 152.5 -118.5 Q167 -104 187 -104 Z M310 -104 Q330 -104 344.5 -118.5 Q359 -133 359 -154 Q359 -174 344.5 -188.5 Q330 -203 310 -203 Q289 -203 274.5 -188.5 Q260 -174 260 -154 Q260 -133 274.5 -118.5 Q289 -104 310 -104 Z M248 -205 Q267 -205 281 -219 Q295 -233 295 -252 Q295 -271 281 -285 Q267 -299 248 -299 Q229 -299 215 -285 Q201 -271 201 -252 Q201 -233 215 -219 Q229 -205 248 -205 Z "/>
<glyph glyph-name="uniFB7D" unicode="ﭽ" horiz-adv-x="575" d="M293 471 Q350 472 399 455 Q455 436 491 395 Q546 331 546 222 L546 94 Q546 82 543 71 L578 71 L578 0 L557 0 L529 35 L526 35 Q498 0 456 0 L-4 0 L-4 71 L423 71 Q440 71 450.5 81.5 Q461 92 461 109 L461 225 Q461 302 420 347 Q375 397 289 397 Q254 397 226.5 393.5 Q199 390 129 376 L129 443 Q221 471 293 471 Z M187 -104 Q207 -104 221.5 -118.5 Q236 -133 236 -154 Q236 -174 221.5 -188.5 Q207 -203 187 -203 Q167 -203 152.5 -188.5 Q138 -174 138 -154 Q138 -133 152.5 -118.5 Q167 -104 187 -104 Z M310 -104 Q330 -104 344.5 -118.5 Q359 -133 359 -154 Q359 -174 344.5 -188.5 Q330 -203 310 -203 Q289 -203 274.5 -188.5 Q260 -174 260 -154 Q260 -133 274.5 -118.5 Q289 -104 310 -104 Z M248 -205 Q267 -205 281 -219 Q295 -233 295 -252 Q295 -271 281 -285 Q267 -299 248 -299 Q229 -299 215 -285 Q201 -271 201 -252 Q201 -233 215 -219 Q229 -205 248 -205 Z "/>
<glyph glyph-name="uniFB89" unicode="ﮉ" horiz-adv-x="479" d="M183 785 L183 689 Q207 719 237 737 Q266 754 294 756 Q298 756 302 756 Q334 756 359 736 Q384 715 384 669 L384 635 Q384 614 372 599 Q356 579 328 579 L114 579 L114 620 L140 620 L140 785 L183 785 Z M297 715 Q268 714 235 689 Q202 661 183 620 L320 620 Q339 620 339 639 L339 667 Q339 694 325 706 Q314 715 297 715 Z M244 471 Q335 464 393 408 Q457 346 457 247 L457 94 Q457 82 454 71 L483 71 L483 0 L468 0 L440 35 L437 35 Q428 25 418 17 Q394 0 367 0 L39 0 L39 71 L334 71 Q351 71 361.5 81.5 Q372 92 372 109 L372 235 Q372 306 328 353 Q283 401 187 402 Q159 402 140 399 L140 466 Q176 472 217 472 Q231 472 244 471 Z "/>
<glyph glyph-name="uniFB8B" unicode="ﮋ" horiz-adv-x="380" d="M235 776 Q254 776 268 762 Q282 748 282 729 Q282 710 268 696 Q254 682 235 682 Q216 682 202 696 Q188 710 188 729 Q188 748 202 762 Q216 776 235 776 Z M175 680 Q195 680 209.5 665.5 Q224 651 224 631 Q224 610 209.5 595.5 Q195 581 175 581 Q154 581 139.5 595.5 Q125 610 125 631 Q125 651 139.5 665.5 Q154 680 175 680 Z M296 680 Q316 680 330.5 665.5 Q345 651 345 631 Q345 610 330.5 595.5 Q316 581 296 581 Q275 581 260.5 595.5 Q246 610 246 631 Q246 651 260.5 665.5 Q275 680 296 680 Z M333 460 L333 71 L384 71 L384 0 L333 0 Q330 -109 265 -171 Q222 -212 154 -228 Q113 -238 68 -238 Q42 -238 22 -237 L-11 -196 L-11 -164 Q18 -168 52 -168 Q84 -168 105 -164 Q179 -151 212 -113 Q248 -70 248 12 L248 460 L333 460 Z "/>
<glyph glyph-name="uniFB8D" unicode="ﮍ" horiz-adv-x="380" d="M138 788 L137 692 Q161 721 191 739 Q219 756 248 758 Q253 758 256 758 Q288 758 313 738 Q338 717 338 671 L338 637 Q338 616 326 601 Q309 581 282 581 L68 581 L68 622 L94 622 L94 788 L138 788 Z M251 716 Q230 717 204 701 Q161 673 137 622 L274 622 Q293 622 293 641 L293 669 Q293 696 277 707 Q265 715 251 716 Z M333 460 L333 71 L384 71 L384 0 L333 0 Q330 -111 263 -172 Q213 -219 134 -232 Q102 -238 68 -238 Q42 -238 22 -237 L-11 -196 L-11 -164 Q18 -168 52 -168 Q84 -168 105 -164 Q178 -151 211 -113 Q248 -71 248 12 L248 460 L333 460 Z "/>
<glyph glyph-name="uniFB8F" unicode="ﮏ" horiz-adv-x="915" d="M811 731 L811 653 L560 504 Q719 461 807 346 Q888 242 888 100 Q888 82 885 71 L919 71 L919 0 L899 0 L870 35 L868 35 Q839 0 797 0 L225 0 Q173 0 131 33 Q69 82 69 165 L69 349 L123 393 L154 393 L154 165 Q154 128 179 101 Q207 71 250 71 L765 71 Q788 71 797 83 Q803 91 803 105 Q803 108 803 111 Q792 225 743 294 Q663 410 487 434 Q481 434 481 441 L481 541 L811 731 Z "/>
<glyph glyph-name="uniFB90" unicode="ﮐ" horiz-adv-x="580" d="M448 731 L448 653 L197 504 Q356 461 445 346 Q525 242 525 108 Q525 101 525 94 Q523 57 501 31 Q474 0 434 0 L-4 0 L-4 71 L402 71 Q441 71 441 111 Q436 215 380 294 Q300 410 124 434 Q118 434 118 441 L118 541 L448 731 Z "/>
<glyph glyph-name="uniFB91" unicode="ﮑ" horiz-adv-x="552" d="M448 731 L448 653 L197 504 Q356 461 444 346 Q525 242 525 108 Q525 101 525 94 Q524 81 522 71 L556 71 L556 0 L536 0 L507 35 L505 35 Q475 0 434 0 L-4 0 L-4 71 L402 71 Q441 71 441 111 Q436 215 380 294 Q300 410 124 434 Q118 434 118 441 L118 541 L448 731 Z "/>
<glyph glyph-name="uniFB93" unicode="ﮓ" horiz-adv-x="915" d="M482 664 L812 855 L812 780 L482 589 L482 664 Z M811 731 L811 653 L560 504 Q719 461 807 346 Q888 242 888 100 Q888 82 885 71 L919 71 L919 0 L899 0 L870 35 L868 35 Q839 0 797 0 L225 0 Q173 0 131 33 Q69 82 69 165 L69 349 L123 393 L154 393 L154 165 Q154 128 179 101 Q207 71 250 71 L765 71 Q788 71 797 83 Q803 91 803 105 Q803 108 803 111 Q792 225 743 294 Q663 410 487 434 Q481 434 481 441 L481 541 L811 731 Z "/>
<glyph glyph-name="uniFB94" unicode="ﮔ" horiz-adv-x="580" d="M118 664 L448 855 L448 780 L118 589 L118 664 Z M448 731 L448 653 L197 504 Q356 461 445 346 Q525 242 525 108 Q525 101 525 94 Q523 57 501 31 Q474 0 434 0 L-4 0 L-4 71 L402 71 Q441 71 441 111 Q436 215 380 294 Q300 410 124 434 Q118 434 118 441 L118 541 L448 731 Z "/>
<glyph glyph-name="uniFB95" unicode="ﮕ" horiz-adv-x="571" d="M118 664 L448 855 L448 780 L118 589 L118 664 Z M448 731 L448 653 L197 504 Q356 461 444 346 Q525 242 525 108 Q525 101 525 94 Q524 81 522 71 L556 71 L556 0 L536 0 L507 35 L505 35 Q475 0 434 0 L-4 0 L-4 71 L402 71 Q441 71 441 111 Q436 215 380 294 Q300 410 124 434 Q118 434 118 441 L118 541 L448 731 Z "/>
<glyph glyph-name="uniFB9F" unicode="ﮟ" horiz-adv-x="758" d="M711 460 L711 71 L762 71 L762 0 L711 0 Q708 -119 631 -182 Q560 -239 445 -239 L335 -239 Q224 -239 154 -186 Q69 -121 69 9 L69 218 L112 253 L154 253 L154 11 Q154 -67 186 -108 Q220 -150 298 -164 Q323 -168 390 -168 Q458 -168 483 -164 Q550 -152 583 -120 Q626 -78 626 11 L626 460 L711 460 Z "/>
<glyph glyph-name="uniFBA5" unicode="ﮥ" horiz-adv-x="523" d="M290 745 Q301 747 313 747 Q337 747 361 739 L361 698 Q343 703 326 703 Q319 703 312 702 Q294 700 284 685 Q274 671 274 650 Q274 630 286 614 Q302 595 330 595 L394 595 L394 578 L374 554 L206 554 L206 595 L250 595 Q229 622 229 660 Q229 689 241 711 Q257 737 290 745 Z M476 487 L476 109 Q476 91 486 80 Q495 71 506 71 L526 71 L526 0 L484 0 Q439 0 412 35 Q347 -10 275 -11 Q192 -12 131 42 Q55 109 55 231 Q55 350 136 421 Q192 471 266 476 Q275 477 284 477 Q337 477 391 452 L434 487 L476 487 Z M284 403 Q229 397 190 358 Q140 308 140 228 Q140 148 178 103 Q215 60 278 60 Q332 60 391 90 L391 383 Q347 405 303 405 Q293 405 284 403 Z "/>
<glyph glyph-name="uniFBA7" unicode="ﮧ" horiz-adv-x="750" d="M712 460 L712 109 Q712 91 722 81 Q730 72 742 71 L762 71 L762 0 L717 0 Q677 0 650 31 Q627 59 627 95 L627 379 Q513 350 464 234 Q429 154 429 39 L429 0 L360 0 Q272 0 199 40 Q135 75 98 133 Q55 202 55 296 Q55 332 61 372 L139 372 Q136 344 136 318 Q136 233 167 178 Q196 126 251 97 Q295 73 344 71 Q346 252 443 356 Q541 460 698 460 L712 460 Z "/>
<glyph glyph-name="uniFBA8" unicode="ﮨ" horiz-adv-x="399" d="M330 460 L330 94 Q330 56 305 29 Q278 0 240 0 L201 0 Q182 -24 168.5 -54 Q155 -84 155 -103 Q155 -116 164.5 -125 Q174 -134 188 -134 L255 -134 L255 -196 L184 -196 Q141 -196 116 -169 Q94 -147 94 -113 Q94 -56 138 0 L-4 0 L-4 71 L207 71 Q229 71 239 88 Q245 97 245 109 L245 460 L330 460 Z "/>
<glyph glyph-name="uniFBA9" unicode="ﮩ" horiz-adv-x="478" d="M482 71 L482 0 L461 0 Q450 -1 442 -9 Q431 -20 431 -38 L431 -348 L417 -348 Q319 -348 244 -306 Q180 -270 138 -208 Q108 -164 89 -106.5 Q70 -49 68 0 L-4 0 L-4 71 L149 71 L149 18 Q149 -89 204 -168 Q257 -243 346 -266 L346 -23 Q346 12 369 40 Q396 71 436 71 L482 71 Z "/>
<glyph glyph-name="uniFBAB" unicode="ﮫ" horiz-adv-x="766" d="M518 496 Q586 490 632 461 Q686 427 713 357 Q739 292 739 199 L739 94 Q739 82 736 71 L769 71 L769 0 L750 0 L722 35 L719 35 Q710 24 699 16 Q675 0 649 0 L417 0 Q360 0 339 7 L335 7 Q315 0 256 0 L90 0 L55 43 L55 71 L211 71 Q188 96 176 131 Q161 171 161 214 Q161 286 192 334 Q218 374 263 392 L263 449 Q317 474 368 485 Q424 498 479 498 Q500 498 518 496 Z M461 423 Q396 422 340 405 Q417 404 462 358 Q513 308 513 214 Q513 176 502 140 Q489 98 464 71 L616 71 Q629 71 640 78 Q654 90 654 109 L654 184 Q654 331 595 383 Q551 423 461 423 Z M336 344 Q287 344 261 311 Q233 276 234 213 Q234 162 258 123 Q286 79 336 77 Q386 79 415 126 Q438 164 438 213 Q439 280 406 315 Q379 344 336 344 Z "/>
<glyph glyph-name="uniFBAC" unicode="ﮬ" horiz-adv-x="783" d="M464 499 Q581 499 646 440 Q727 366 727 199 L727 94 Q727 60 705 33 Q678 0 637 0 L397 0 Q340 0 319 7 L315 7 Q295 0 236 0 L-4 0 L-4 71 L190 71 Q168 97 155 133 Q141 172 141 214 Q141 285 172 334 Q198 375 243 392 L243 449 Q351 499 464 499 Z M463 423 Q458 423 447 423 Q377 423 319 405 Q397 404 442 358 Q493 308 493 214 Q493 176 481 140 Q468 98 443 71 L604 71 Q617 71 628 78 Q642 90 642 109 L642 184 Q642 329 585 382 Q545 420 463 423 Z M316 344 Q263 344 237 305 Q214 272 214 213 Q215 160 238 123 Q267 79 316 77 Q358 79 386 113 Q417 153 418 213 Q419 279 387 315 Q360 344 316 344 Z "/>
<glyph glyph-name="uniFBAD" unicode="ﮭ" horiz-adv-x="756" d="M482 498 Q590 493 651 435 Q727 361 727 199 L727 94 Q727 82 724 71 L760 71 L760 0 L738 0 L710 35 L707 35 Q699 25 688 17 Q665 0 637 0 L397 0 Q340 0 319 7 L315 7 Q295 0 236 0 L-4 0 L-4 71 L190 71 Q167 97 155 134 Q141 172 141 214 Q141 289 175 337 Q199 375 243 392 L243 449 Q350 498 465 498 Q472 498 482 498 Z M468 423 Q457 424 445 424 Q379 424 319 405 Q415 404 461 336 Q493 287 493 214 Q493 177 482 142 Q470 100 443 71 L604 71 Q623 71 634 84 Q642 95 642 109 L642 184 Q642 329 584 382 Q543 418 468 423 Z M316 344 Q272 344 246 317 Q213 283 214 213 Q215 154 243 116 Q271 79 316 77 Q367 79 396 127 Q418 165 418 213 Q419 281 385 316 Q358 344 316 344 Z "/>
<glyph glyph-name="uniFBAF" unicode="ﮯ" horiz-adv-x="684" d="M822 71 L822 0 L236 0 Q193 0 170 -21 Q151 -40 151 -70 Q151 -89 162 -102 Q178 -120 209 -120 L674 -120 L674 -148 L639 -191 L211 -191 Q145 -191 109 -162 Q69 -130 69 -70 Q69 -6 116 32 Q163 71 240 71 L822 71 Z "/>
<glyph glyph-name="uniFBB1" unicode="ﮱ" horiz-adv-x="679" d="M180 462 Q191 464 203 464 Q226 464 251 456 L251 415 Q233 420 216 420 Q209 420 202 419 Q184 417 174 402 Q164 388 164 367 Q164 347 176 331 Q193 312 220 312 L284 312 L284 295 L264 271 L96 271 L96 312 L140 312 Q119 339 119 377 Q119 406 131 428 Q147 454 180 462 Z M844 71 L844 0 L258 0 Q215 0 192 -21 Q173 -40 173 -70 Q173 -89 184 -102 Q200 -120 231 -120 L696 -120 L696 -148 L661 -191 L233 -191 Q167 -191 131 -162 Q91 -130 91 -70 Q91 -6 138 32 Q185 71 262 71 L844 71 Z "/>
<glyph glyph-name="uniFBB2" unicode="﮲" d="M50 654 Q70 654 84.5 639.5 Q99 625 99 605 Q99 584 84.5 569.5 Q70 555 50 555 Q29 555 14.5 569.5 Q0 584 0 605 Q0 625 14.5 639.5 Q29 654 50 654 Z "/>
<glyph glyph-name="uniFBB3" unicode="﮳" d="M50 -89 Q70 -89 84.5 -103.5 Q99 -118 99 -139 Q99 -159 84.5 -173.5 Q70 -188 50 -188 Q29 -188 14.5 -173.5 Q0 -159 0 -139 Q0 -118 14.5 -103.5 Q29 -89 50 -89 Z "/>
<glyph glyph-name="uniFBB4" unicode="﮴" d="M50 668 Q70 668 84.5 653.5 Q99 639 99 619 Q99 598 84.5 583.5 Q70 569 50 569 Q29 569 14.5 583.5 Q0 598 0 619 Q0 639 14.5 653.5 Q29 668 50 668 Z M171 668 Q191 668 205.5 653.5 Q220 639 220 619 Q220 598 205.5 583.5 Q191 569 171 569 Q151 569 136.5 583.5 Q122 598 122 619 Q122 639 136.5 653.5 Q151 668 171 668 Z "/>
<glyph glyph-name="uniFBB5" unicode="﮵" d="M50 -101 Q70 -101 84.5 -115.5 Q99 -130 99 -151 Q99 -171 84.5 -185.5 Q70 -200 50 -200 Q29 -200 14.5 -185.5 Q0 -171 0 -151 Q0 -130 14.5 -115.5 Q29 -101 50 -101 Z M171 -101 Q191 -101 205.5 -115.5 Q220 -130 220 -151 Q220 -171 205.5 -185.5 Q191 -200 171 -200 Q151 -200 136.5 -185.5 Q122 -171 122 -151 Q122 -130 136.5 -115.5 Q151 -101 171 -101 Z "/>
<glyph glyph-name="uniFBB6" unicode="﮶" d="M110 769 Q129 769 143 755 Q157 741 157 722 Q157 703 143 689 Q129 675 110 675 Q91 675 77 689 Q63 703 63 722 Q63 741 77 755 Q91 769 110 769 Z M50 673 Q70 673 84.5 658.5 Q99 644 99 624 Q99 603 84.5 588.5 Q70 574 50 574 Q29 574 14.5 588.5 Q0 603 0 624 Q0 644 14.5 658.5 Q29 673 50 673 Z M171 673 Q191 673 205.5 658.5 Q220 644 220 624 Q220 603 205.5 588.5 Q191 574 171 574 Q151 574 136.5 588.5 Q122 603 122 624 Q122 644 136.5 658.5 Q151 673 171 673 Z "/>
<glyph glyph-name="uniFBB7" unicode="﮷" d="M110 -90 Q129 -90 143 -104 Q157 -118 157 -137 Q157 -156 143 -170 Q129 -184 110 -184 Q91 -184 77 -170 Q63 -156 63 -137 Q63 -118 77 -104 Q91 -90 110 -90 Z M50 -186 Q70 -186 84.5 -200.5 Q99 -215 99 -236 Q99 -256 84.5 -270.5 Q70 -285 50 -285 Q29 -285 14.5 -270.5 Q0 -256 0 -236 Q0 -215 14.5 -200.5 Q29 -186 50 -186 Z M171 -186 Q191 -186 205.5 -200.5 Q220 -215 220 -236 Q220 -256 205.5 -270.5 Q191 -285 171 -285 Q151 -285 136.5 -270.5 Q122 -256 122 -236 Q122 -215 136.5 -200.5 Q151 -186 171 -186 Z "/>
<glyph glyph-name="uniFBB9" unicode="﮹" d="M50 -108 Q70 -108 84.5 -122.5 Q99 -137 99 -158 Q99 -178 84.5 -192.5 Q70 -207 50 -207 Q29 -207 14.5 -192.5 Q0 -178 0 -158 Q0 -137 14.5 -122.5 Q29 -108 50 -108 Z M171 -108 Q191 -108 205.5 -122.5 Q220 -137 220 -158 Q220 -178 205.5 -192.5 Q191 -207 171 -207 Q151 -207 136.5 -192.5 Q122 -178 122 -158 Q122 -137 136.5 -122.5 Q151 -108 171 -108 Z M110 -209 Q129 -209 143 -223 Q157 -237 157 -256 Q157 -275 143 -289 Q129 -303 110 -303 Q91 -303 77 -289 Q63 -275 63 -256 Q63 -237 77 -223 Q91 -209 110 -209 Z "/>
<glyph glyph-name="uniFBE8" unicode="ﯨ" horiz-adv-x="330" d="M261 460 L261 94 Q261 58 237 31 Q210 0 171 0 L-4 0 L-4 71 L138 71 Q155 71 167 83 Q176 93 176 109 L176 460 L261 460 Z "/>
<glyph glyph-name="uniFBE9" unicode="ﯩ" horiz-adv-x="308" d="M261 460 L261 94 Q261 82 258 71 L311 71 L311 0 L272 0 L244 35 L241 35 Q213 0 171 0 L-4 0 L-4 71 L138 71 Q154 71 164 81 Q176 91 176 109 L176 460 L261 460 Z "/>
<glyph glyph-name="uniFBFC" unicode="ﯼ" horiz-adv-x="754" d="M497 472 Q501 472 506 472 Q563 472 625 452 L625 386 Q553 403 511 402 Q455 400 423 372 Q392 345 388 291 Q388 284 388 278 Q388 235 411 210 Q425 193 448 182 Q471 171 523 155 Q590 135 621 118 Q665 94 686 54 Q708 14 708 -39 Q708 -61 704 -80 Q689 -160 617 -200 Q550 -239 445 -239 L334 -239 Q210 -239 138 -172 Q69 -108 69 9 L69 139 L112 174 L154 174 L154 10 Q154 -66 187 -108 Q220 -149 298 -163 Q323 -167 390 -167 Q458 -167 483 -163 Q543 -153 577 -134 Q619 -109 625 -61 Q627 -49 627 -37 Q627 1 612 26 Q598 47 574 59.5 Q550 72 492 88 Q436 104 409 116 Q365 135 339 168 Q306 211 306 279 Q306 288 307 296 Q310 341 327 377.5 Q344 414 370 434 Q420 470 497 472 Z "/>
<glyph glyph-name="uniFBFD" unicode="ﯽ" horiz-adv-x="669" d="M154 174 L154 11 Q154 -56 178 -96 Q210 -149 298 -164 Q321 -168 387 -168 Q456 -168 483 -164 Q547 -153 580 -123 Q623 -82 626 0 L550 0 L515 43 L515 71 L738 71 L738 0 L711 0 Q708 -121 628 -184 Q558 -239 446 -239 L335 -239 Q210 -239 138 -172 Q69 -107 69 9 L69 139 L112 174 L154 174 Z "/>
<glyph glyph-name="uniFBFE" unicode="ﯾ" horiz-adv-x="330" d="M261 460 L261 94 Q261 58 237 31 Q210 0 171 0 L-4 0 L-4 71 L138 71 Q155 71 167 83 Q176 93 176 109 L176 460 L261 460 Z M80 -104 Q100 -104 114.5 -118.5 Q129 -133 129 -154 Q129 -174 114.5 -188.5 Q100 -203 80 -203 Q60 -203 45.5 -188.5 Q31 -174 31 -154 Q31 -133 45.5 -118.5 Q60 -104 80 -104 Z M202 -104 Q222 -104 236.5 -118.5 Q251 -133 251 -154 Q251 -174 236.5 -188.5 Q222 -203 202 -203 Q182 -203 167.5 -188.5 Q153 -174 153 -154 Q153 -133 167.5 -118.5 Q182 -104 202 -104 Z "/>
<glyph glyph-name="uniFBFF" unicode="ﯿ" horiz-adv-x="308" d="M261 460 L261 94 Q261 82 258 71 L311 71 L311 0 L272 0 L244 35 L241 35 Q213 0 171 0 L-4 0 L-4 71 L138 71 Q154 71 164 81 Q176 91 176 109 L176 460 L261 460 Z M90 -104 Q110 -104 124.5 -118.5 Q139 -133 139 -154 Q139 -174 124.5 -188.5 Q110 -203 90 -203 Q70 -203 55.5 -188.5 Q41 -174 41 -154 Q41 -133 55.5 -118.5 Q70 -104 90 -104 Z M211 -104 Q231 -104 245.5 -118.5 Q260 -133 260 -154 Q260 -174 245.5 -188.5 Q231 -203 211 -203 Q191 -203 176.5 -188.5 Q162 -174 162 -154 Q162 -133 176.5 -118.5 Q191 -104 211 -104 Z "/>
<glyph glyph-name="uniFC3D" unicode="ﰽ" horiz-adv-x="1023" d="M905 731 L905 653 L653 504 Q789 466 878 355 Q968 241 968 94 Q968 55 941 27 Q914 0 878 0 L711 0 Q708 -115 636 -177 Q566 -239 445 -239 L334 -239 Q216 -239 146 -180 Q69 -114 69 9 L69 139 L112 174 L154 174 L154 11 Q154 -84 204 -126 Q236 -153 298 -164 Q321 -168 387 -168 Q456 -168 483 -164 Q541 -153 572 -129 Q623 -90 626 0 L549 0 L514 43 L514 71 L843 71 Q881 71 881 104 Q881 107 881 111 Q873 212 821 286 Q776 350 706 390 Q647 424 580 433 Q574 434 574 440 L574 540 L905 731 Z "/>
<glyph glyph-name="uniFC3E" unicode="ﰾ" horiz-adv-x="1023" d="M905 731 L905 653 L653 504 Q789 466 878 355 Q968 241 968 94 Q968 55 941 27 Q914 0 878 0 L711 0 Q708 -115 636 -177 Q566 -239 445 -239 L334 -239 Q216 -239 146 -180 Q69 -114 69 9 L69 139 L112 174 L154 174 L154 11 Q154 -84 204 -126 Q236 -153 298 -164 Q321 -168 387 -168 Q456 -168 483 -164 Q541 -153 572 -129 Q623 -90 626 0 L549 0 L514 43 L514 71 L843 71 Q881 71 881 104 Q881 107 881 111 Q873 212 821 286 Q776 350 706 390 Q647 424 580 433 Q574 434 574 440 L574 540 L905 731 Z M330 -298 Q350 -298 364.5 -312.5 Q379 -327 379 -347 Q379 -367 364.5 -381.5 Q350 -396 330 -396 Q309 -396 294.5 -381.5 Q280 -367 280 -347 Q280 -327 294.5 -312.5 Q309 -298 330 -298 Z M451 -298 Q471 -298 485.5 -312.5 Q500 -327 500 -347 Q500 -367 485.5 -381.5 Q471 -396 451 -396 Q430 -396 415.5 -381.5 Q401 -367 401 -347 Q401 -327 415.5 -312.5 Q430 -298 451 -298 Z "/>
<glyph glyph-name="uniFC59" unicode="ﱙ" horiz-adv-x="1044" d="M974 460 L974 94 Q974 56 948 28 Q921 0 884 0 L711 0 Q708 -114 637 -177 Q565 -239 445 -239 L334 -239 Q217 -239 146 -180 Q69 -114 69 9 L69 139 L112 174 L154 174 L154 11 Q154 -72 191 -113 Q224 -151 298 -164 Q321 -168 387 -168 Q456 -168 483 -164 Q545 -153 578 -124 Q623 -86 626 0 L549 0 L514 43 L514 71 L851 71 Q868 71 878.5 81.5 Q889 92 889 109 L889 460 L974 460 Z M794 -104 Q814 -104 828.5 -118.5 Q843 -133 843 -154 Q843 -174 828.5 -188.5 Q814 -203 794 -203 Q774 -203 759.5 -188.5 Q745 -174 745 -154 Q745 -133 759.5 -118.5 Q774 -104 794 -104 Z M917 -104 Q937 -104 951.5 -118.5 Q966 -133 966 -154 Q966 -174 951.5 -188.5 Q937 -203 917 -203 Q896 -203 881.5 -188.5 Q867 -174 867 -154 Q867 -133 881.5 -118.5 Q896 -104 917 -104 Z "/>
<glyph glyph-name="uniFC5A" unicode="ﱚ" horiz-adv-x="1021" d="M974 460 L974 94 Q974 56 948 28 Q921 0 884 0 L711 0 Q708 -114 637 -177 Q565 -239 445 -239 L334 -239 Q217 -239 146 -180 Q69 -114 69 9 L69 139 L112 174 L154 174 L154 11 Q154 -72 191 -113 Q224 -151 298 -164 Q321 -168 387 -168 Q456 -168 483 -164 Q545 -153 578 -124 Q623 -86 626 0 L549 0 L514 43 L514 71 L851 71 Q868 71 878.5 81.5 Q889 92 889 109 L889 460 L974 460 Z M794 -104 Q814 -104 828.5 -118.5 Q843 -133 843 -154 Q843 -174 828.5 -188.5 Q814 -203 794 -203 Q774 -203 759.5 -188.5 Q745 -174 745 -154 Q745 -133 759.5 -118.5 Q774 -104 794 -104 Z M917 -104 Q937 -104 951.5 -118.5 Q966 -133 966 -154 Q966 -174 951.5 -188.5 Q937 -203 917 -203 Q896 -203 881.5 -188.5 Q867 -174 867 -154 Q867 -133 881.5 -118.5 Q896 -104 917 -104 Z M330 -298 Q350 -298 364.5 -312.5 Q379 -327 379 -347 Q379 -367 364.5 -381.5 Q350 -396 330 -396 Q309 -396 294.5 -381.5 Q280 -367 280 -347 Q280 -327 294.5 -312.5 Q309 -298 330 -298 Z M451 -298 Q471 -298 485.5 -312.5 Q500 -327 500 -347 Q500 -367 485.5 -381.5 Q471 -396 451 -396 Q430 -396 415.5 -381.5 Q401 -367 401 -347 Q401 -327 415.5 -312.5 Q430 -298 451 -298 Z "/>
<glyph glyph-name="uniFC83" unicode="ﲃ" horiz-adv-x="995" d="M905 731 L905 653 L653 504 Q786 467 876 357 Q968 243 968 99 Q968 84 965 71 L999 71 L999 0 L979 0 L951 35 L948 35 Q920 0 878 0 L711 0 Q708 -116 635 -179 Q564 -239 445 -239 L334 -239 Q208 -239 137 -171 Q69 -107 69 9 L69 139 L112 174 L154 174 L154 11 Q154 -63 183 -104 Q216 -149 298 -164 Q321 -168 387 -168 Q456 -168 482 -164 Q541 -153 572 -129 Q623 -89 626 0 L549 0 L514 43 L514 71 L844 71 Q882 71 882 104 Q882 107 882 111 Q871 231 801 312 Q759 361 701.5 393 Q644 425 580 433 Q574 434 574 440 L574 540 L905 731 Z "/>
<glyph glyph-name="uniFC84" unicode="ﲄ" horiz-adv-x="995" d="M905 731 L905 653 L653 504 Q786 467 876 357 Q968 243 968 100 Q968 84 965 71 L999 71 L999 0 L979 0 L951 35 L948 35 Q920 0 878 0 L711 0 Q708 -116 635 -179 Q564 -239 445 -239 L334 -239 Q208 -239 137 -171 Q69 -107 69 9 L69 139 L112 174 L154 174 L154 11 Q154 -63 183 -104 Q216 -149 298 -164 Q321 -168 387 -168 Q456 -168 483 -164 Q541 -153 572 -129 Q623 -89 626 0 L549 0 L514 43 L514 71 L844 71 Q882 71 882 104 Q882 107 882 111 Q872 224 810 302 Q766 356 705 391 Q646 424 580 433 Q574 434 574 440 L574 540 L905 731 Z M330 -298 Q350 -298 364.5 -312.5 Q379 -327 379 -347 Q379 -367 364.5 -381.5 Q350 -396 330 -396 Q309 -396 294.5 -381.5 Q280 -367 280 -347 Q280 -327 294.5 -312.5 Q309 -298 330 -298 Z M451 -298 Q471 -298 485.5 -312.5 Q500 -327 500 -347 Q500 -367 485.5 -381.5 Q471 -396 451 -396 Q430 -396 415.5 -381.5 Q401 -367 401 -347 Q401 -327 415.5 -312.5 Q430 -298 451 -298 Z "/>
<glyph glyph-name="uniFC95" unicode="ﲕ" horiz-adv-x="1021" d="M974 460 L974 94 Q974 82 971 71 L1025 71 L1025 0 L985 0 L957 35 L954 35 Q926 0 884 0 L711 0 Q708 -105 647 -167 Q576 -239 445 -239 L334 -239 Q210 -239 138 -173 Q69 -108 69 9 L69 139 L112 174 L154 174 L154 11 Q154 -67 186 -107 Q219 -150 298 -164 Q321 -168 387 -168 Q456 -168 483 -164 Q547 -153 579 -123 Q623 -83 626 0 L549 0 L514 43 L514 71 L851 71 Q868 71 878.5 81.5 Q889 92 889 109 L889 460 L974 460 Z M803 -104 Q823 -104 837.5 -118.5 Q852 -133 852 -154 Q852 -174 837.5 -188.5 Q823 -203 803 -203 Q783 -203 768.5 -188.5 Q754 -174 754 -154 Q754 -133 768.5 -118.5 Q783 -104 803 -104 Z M925 -104 Q945 -104 959.5 -118.5 Q974 -133 974 -154 Q974 -174 959.5 -188.5 Q945 -203 925 -203 Q905 -203 890.5 -188.5 Q876 -174 876 -154 Q876 -133 890.5 -118.5 Q905 -104 925 -104 Z "/>
<glyph glyph-name="uniFC96" unicode="ﲖ" horiz-adv-x="1021" d="M974 460 L974 94 Q974 82 971 71 L1025 71 L1025 0 L985 0 L957 35 L954 35 Q926 0 884 0 L711 0 Q708 -105 647 -167 Q576 -239 445 -239 L334 -239 Q210 -239 138 -173 Q69 -108 69 9 L69 139 L112 174 L154 174 L154 11 Q154 -67 186 -107 Q219 -150 298 -164 Q321 -168 387 -168 Q456 -168 483 -164 Q547 -153 579 -123 Q623 -83 626 0 L549 0 L514 43 L514 71 L851 71 Q868 71 878.5 81.5 Q889 92 889 109 L889 460 L974 460 Z M803 -104 Q823 -104 837.5 -118.5 Q852 -133 852 -154 Q852 -174 837.5 -188.5 Q823 -203 803 -203 Q783 -203 768.5 -188.5 Q754 -174 754 -154 Q754 -133 768.5 -118.5 Q783 -104 803 -104 Z M925 -104 Q945 -104 959.5 -118.5 Q974 -133 974 -154 Q974 -174 959.5 -188.5 Q945 -203 925 -203 Q905 -203 890.5 -188.5 Q876 -174 876 -154 Q876 -133 890.5 -118.5 Q905 -104 925 -104 Z M330 -298 Q350 -298 364.5 -312.5 Q379 -327 379 -347 Q379 -367 364.5 -381.5 Q350 -396 330 -396 Q309 -396 294.5 -381.5 Q280 -367 280 -347 Q280 -327 294.5 -312.5 Q309 -298 330 -298 Z M451 -298 Q471 -298 485.5 -312.5 Q500 -327 500 -347 Q500 -367 485.5 -381.5 Q471 -396 451 -396 Q430 -396 415.5 -381.5 Q401 -367 401 -347 Q401 -327 415.5 -312.5 Q430 -298 451 -298 Z "/>
<glyph glyph-name="uniFD3E" unicode="﴾" horiz-adv-x="550" d="M391 716 L418 695 Q339 584 312 438 L377 438 L321 382 L275 429 L228 382 L171 438 L236 438 Q264 598 362 716 L391 716 Z M113 380 L169 324 L125 278 L169 234 L113 177 L113 241 L37 270 L37 288 L113 316 L113 380 Z M438 380 L438 316 L513 288 L513 270 L438 241 L438 177 L381 232 L426 278 L381 324 L438 380 Z M275 335 L329 280 L275 226 L221 280 L275 335 Z M321 176 L377 120 L315 120 Q337 28 408 -85 L381 -106 L353 -106 Q269 -9 237 120 L171 120 L228 176 L275 129 L321 176 Z "/>
<glyph glyph-name="uniFD3F" unicode="﴿" horiz-adv-x="550" d="M159 716 L188 716 Q286 598 314 438 L379 438 L321 382 L275 429 L228 382 L173 438 L238 438 Q211 583 132 695 L159 716 Z M112 380 L169 324 L124 278 L169 232 L112 177 L112 241 L37 270 L37 288 L112 316 L112 380 Z M437 380 L437 316 L513 288 L513 270 L437 241 L437 177 L381 234 L426 278 L381 324 L437 380 Z M275 335 L329 280 L275 226 L221 280 L275 335 Z M321 176 L379 120 L313 120 Q280 -9 197 -106 L169 -106 L141 -85 Q213 26 235 120 L173 120 L228 176 L275 129 L321 176 Z "/>
<glyph glyph-name="uniFDF2" unicode="ﷲ" horiz-adv-x="1340" d="M740 1090 L740 899 L718 881 L696 881 L696 1090 L740 1090 Z M840 842 L840 732 Q840 713 828 700 Q815 685 793 685 L746 685 L733 699 L732 699 Q729 695 724 691 Q714 685 703 685 L643 685 Q622 685 609 699 Q596 712 596 732 L596 800 L617 818 L639 818 L639 734 Q639 729 642 726 Q647 720 653 720 L682 720 Q688 720 692 724 Q696 729 696 734 L696 818 L740 818 L740 720 L783 720 Q789 720 793 725 Q797 728 797 734 L797 842 L840 842 Z M1271 762 L1271 10 L1228 -25 L1186 -25 L1186 762 L1271 762 Z M1049 613 L1049 94 Q1049 54 1021 27 Q995 0 959 0 L778 0 L746 35 L743 35 Q731 21 713 10 Q694 0 673 0 L484 0 Q439 0 412 34 Q346 -11 277 -11 Q191 -11 131 42 Q55 109 55 231 Q55 351 136 422 Q192 472 266 477 Q275 478 284 478 Q337 478 391 453 L434 488 L476 488 L476 109 Q476 91 487 80 Q495 71 506 71 L640 71 Q657 71 667 81 Q678 92 678 109 L678 613 L763 613 L763 94 Q763 82 760 71 L926 71 Q944 71 955 83 Q964 93 964 109 L964 613 L1049 613 Z M284 404 Q229 398 190 359 Q140 309 140 229 Q140 151 181 104 Q219 60 278 60 Q332 60 391 89 L391 383 Q347 405 303 405 Q293 405 284 404 Z "/>
</font>
</svg>
